Дай руку, жизнь моя! / Mozart (Карл Хартль / Karl Hartl) [1955, Австрия, драма, биография, музыкальный, Screener > DVD] [Советская прокатная копия] Dub (Ленфильм)

Ответить на тему
Статистика раздачи [Обновить пиров]
Размер:  3.9 GB   |    Зарегистрирован:  3 месяца 3 дня   |    Скачан:  0 раз

Полного источника не было: Никогда

 
   
 
 
 
Автор Сообщение

torrentc.info

Создавать темы 14-Май-2018 00:33

[Цитировать]

Дай руку, жизнь моя! / Mozart
[Советская прокатная копия]
Страна: Австрия
Студия: Cosmopol-Film
Жанр: драма, биография,
Год выхода: 1955
Продолжительность: 01:27:18
Перевод: Профессиональный (дублированный) - Киностудия "Ленфильм"
Субтитры: нет
Оригинальная аудиодорожка: нет
Режиссер: Карл Хартль / Karl Hartl
В ролях: Оскар Вернер / Oskar Werner ... Вольфганг Амадей Моцарт
Иоганна Матц / Johanna Matz ... Анни Готтлиб
Гертруда Кюккельманн / Gertrud Kückelmann ... Констанция Моцарт
Надя Тиллер / Nadja Tiller ... Алоиза Вебер
Эрих Кунц / Erich Kunz ... Шиканедер
Альбин Скода / Albin Skoda ... Сальери
Рауль Аслан / Raul Aslan ... Граф Розенберг
Ульрих Беттак / Ulrich Bettac ... отец Анни Готтлиб
Леопольд Рудольф / Leopold Rudolf ... Неизвестный

Описание: Фильм рассказывает о жизни великого композитора Вольфганга Амадея Моцарта во время его работы над последней оперой «Волшебная флейта». Во время написания оперы и репетиций композитор влюбляется в молодую певицу Анни Готтлиб, исполнительницу роли Памины...--IMDbКиноПоиск--Спасибо за фильм - [url=profile.php?mode=viewprofile&u=GalaUkr]GalaUkr[/url]--Сэмпл: https://yadi.sk/d/WLf2YMct3Vph5X
Тип релиза: Screener
Формат файла: DVD-Video
Видео: 720x576 (4:3) @ 768x576, 25.000 fps, MPEG-2 Video, ~6274 Kbps, 0.605 bits/pixel
Аудио: Русский, AC3, 48 kHz, 256 kbps, 2 ch

DVDInfo

Title: Дай руку, жизнь моя! (1955)
Size: 3.90 Gb ( 4 085 360,00 KBytes ) - DVD-5
Enabled regions: 1, 2, 3, 4, 5, 6
VTS_01 :
Play Length: 01:27:18
Video: PAL 4:3 (720x576) VBR
Audio:
Not specified, AC3, 2/0 (L,R) ch, 256 kbps, Delay 0 mSec
* Menus Information *
VIDEO_TS Menu
Video:
PAL 4:3 (720x576) VBR
English Language Unit :
Title Menu
VTS_01 Menu
Video:
NTSC 4:3 (720x480) VBR
Auto Pan&Scan, Auto Letterboxed
English Language Unit :
Root Menu

MediaInfo

General
Complete name : \Дай руку, жизнь моя! (1955)\VIDEO_TS\VTS_01_3.VOB
Format : MPEG-PS
File size : 1 024 MiB
Duration : 21 min 29 s
Overall bit rate mode : Variable
Overall bit rate : 6 663 kb/s
Video
ID : 224 (0xE0)
Format : MPEG Video
Format version : Version 2
Format profile : Main@Main
Format settings : CustomMatrix / BVOP
Format settings, BVOP : Yes
Format settings, Matrix : Custom
Format settings, GOP : M=3, N=12
Format settings, picture structure : Frame
Duration : 21 min 29 s
Bit rate mode : Variable
Bit rate : 6 274 kb/s
Maximum bit rate : 9 600 kb/s
Width : 720 pixels
Height : 576 pixels
Display aspect ratio : 4:3
Frame rate : 25.000 FPS
Standard : PAL
Color space : YUV
Chroma subsampling : 4:2:0
Bit depth : 8 bits
Scan type : Interlaced
Scan order : Top Field First
Compression mode : Lossy
Bits/(Pixel*Frame) : 0.605
Time code of first frame : 00:45:13:11
Time code source : Group of pictures header
GOP, Open/Closed : Open
Stream size : 964 MiB (94%)
Audio
ID : 189 (0xBD)-128 (0x80)
Format : AC-3
Format/Info : Audio Coding 3
Muxing mode : DVD-Video
Duration : 21 min 29 s
Bit rate mode : Constant
Bit rate : 256 kb/s
Channel(s) : 2 channels
Channel positions : Front: L R
Sampling rate : 48.0 kHz
Frame rate : 31.250 FPS (1536 SPF)
Bit depth : 16 bits
Compression mode : Lossy
Delay relative to video : -160 ms
Stream size : 39.3 MiB (4%)
Service kind : Complete Main
Menu


[torrentc.info]_t_5561407.torrent
Торрент: Зарегистрирован ·  [ 2018-05-14 00:33 ] ·  745b7a5541c0a462a7a5cc9c93337469dbc60858

20 KB

Статус: проверено
Скачан: 0 раз
Размер: 3.9 GB
Оценка: 
(Голосов: 0)
Сказали спасибо: 0  Спасибо
Похожие темы
[Профиль]    [ЛС]
Показать сообщения:    
Ответить на тему

Текущее время: Сегодня 10:23

Часовой пояс: GMT + 7



Вы не можете начинать темы
Вы не можете отвечать на сообщения
Вы не можете редактировать свои сообщения
Вы не можете удалять свои сообщения
Вы не можете голосовать в опросах
Вы не можете прикреплять файлы к сообщениям
Вы можете скачивать файлы