Крокодил Данди / Данди по прозвищу "Крокодил" / Crocodile Dundee (Питер Фэймен / Peter Faiman) [1986, Австралия, комедия, приключения, BDRip] VO

Ответить на тему
Статистика раздачи [Обновить пиров]
Размер:  1.45 GB   |    Зарегистрирован:  5 месяцев 11 дней   |    Скачан:  1 раз

Полного источника не было: 5 месяцев 10 дней

 
   
 
 
 
Автор Сообщение

torrentc.info

Создавать темы 13-Май-2018 10:59

[Цитировать]

Крокодил Данди / Данди по прозвищу "Крокодил" / Crocodile Dundee
Год выхода: 1986
Страна: Австралия
Жанр: комедия, приключения
Продолжительность: 01:37:41
Перевод: Одноголосый закадровый - Неизвестный (VHS)
Субтитры: нет
Режиссер: Питер Фэймен / Peter Faiman
В ролях: Пол Хоган / Michael J. «Crocodile» Dundee, Линда Козловски / Sue Charlton, Марк Блум / Richard Mason, Дэвид Галпилип / Neville Bell, Майкл Ломбард / Sam Charlton, Джон Майллон / Walter Reilly, Реджинальд ВелДжонсон / Gus-Мировая премьера: 24 апреля 1986-Описание: По заданию редакции журналистка Сью Чарльтон едет в австралийскую глубинку, чтобы сделать репортаж об охотнике на крокодилов. Мик Данди с удовольствием помогает очаровательной девушке, показывает ей все местные "достопримечательности" и знакомит с особенностями охоты в джунглях. Неожиданно для самой себя Сью увлекается брутальным охотником на крокодилов и не хочет с ним расставаться. Поэтому она уговаривает Мика приехать к ней в гости. Тот принимает приглашение и оказывается в Нью-Йорке - в центре настоящих каменных джунглей. "Крокодил" легко попадает в нелепые ситуации и также легко из них выходит.-Огромная благодарность:
[url=profile.php?mode=viewprofile&u=1764000]smit009[/url] - видеоряд
[url=profile.php?mode=viewprofile&u=760904]RoxMarty[/url] - личная оцифровка Неизвестного переводчика со своей видеокассеты.
[url=profile.php?mode=viewprofile&u=20398762]JUSTKANT[/url] - синхронизация перевода.-ДАННЫЙ ПЕРЕВОД НА ТРЕКЕРЕ ПОЯВЛЯЕТСЯ ВПЕРВЫЕ!-Рейтинг
[img]https://rating.kinopoisk.ru/8126.gif[/img]-Качество видео: BDRip
Формат файла: AVI -> //Сэмпл//
Видео: XviD, 720x304 (2.35:1), 23.976 fps, 1927 kbps
Аудио:
1 - 48 khz, AC3 Dolby Digital, 2/0 (L,R) ch, ~192 kbps [Неизвестный] VHSRip

MediaInfo

GeneralComplete name : D:\Крокодил Данди (Неизвестный).aviFormat : AVIFormat/Info : Audio Video InterleaveFile size : 1.45 GiBDuration : 1 h 37 minOverall bit rate : 2 129 kb/sMovie name : Крокодил Данди / Crocodile Dundee (Неизвестный)Director : JUSTKANTWriting application : VirtualDubMod 1.5.10.3 (build 2550/release)Copyright : Перевод наложен на французский дубляж!Comment : Качество звука: VHSRip (RoxMarty)
VideoID : 0Format : MPEG-4 VisualFormat profile : Advanced Simple@L5Format settings : BVOP1 / Custom MatrixFormat settings, BVOP : 1Format settings, QPel : NoFormat settings, GMC : No warppointsFormat settings, Matrix : CustomCodec ID : XVIDCodec ID/Hint : XviDDuration : 1 h 37 minBit rate : 1 927 kb/sWidth : 720 pixelsHeight : 304 pixelsDisplay aspect ratio : 2.35:1Frame rate : 23.976 (24000/1001) FPSColor space : YUVChroma subsampling : 4:2:0Bit depth : 8 bitsScan type : ProgressiveCompression mode : LossyBits/(Pixel*Frame) : 0.367Stream size : 1.32 GiB (91%)Writing library : XviD 65
AudioID : 1Format : AC-3Format/Info : Audio Coding 3Codec ID : 2000Duration : 1 h 37 minBit rate mode : ConstantBit rate : 192 kb/sChannel(s) : 2 channelsChannel positions : Front: L RSampling rate : 48.0 kHzFrame rate : 31.250 FPS (1536 SPF)Bit depth : 16 bitsCompression mode : LossyStream size : 134 MiB (9%)Alignment : Split accross interleavesInterleave, duration : 42 ms (1.00 video frame)Interleave, preload duratio : 500 msTitle : Неизвестный под французский дубляж (VHSRip)Service kind : Complete Main

Скриншот c названием фильма

Скриншоты



[torrentc.info]_t_5559238.torrent
Торрент: Зарегистрирован ·  [ 2018-05-13 10:59 ] ·  db64d0161f1cbe834da65cdc714b0bc623c62012

15 KB

Статус: проверено
Скачан: 1 раз
Размер: 1.45 GB
Оценка: 
(Голосов: 0)
Сказали спасибо: 0  Спасибо
Похожие темы
[Профиль]    [ЛС]
Показать сообщения:    
Ответить на тему

Текущее время: Сегодня 13:04

Часовой пояс: GMT + 7



Вы не можете начинать темы
Вы не можете отвечать на сообщения
Вы не можете редактировать свои сообщения
Вы не можете удалять свои сообщения
Вы не можете голосовать в опросах
Вы не можете прикреплять файлы к сообщениям
Вы можете скачивать файлы