(Progressive Rock) [WEB] DAAR - Back to Earth (EP) - 2018, FLAC (tracks), lossless

Ответить на тему
Статистика раздачи [Обновить пиров]
Размер:  184 MB   |    Зарегистрирован:  3 месяца 2 дня   |    Скачан:  0 раз

Полного источника не было: Никогда

 
   
 
 
 
Автор Сообщение

torrentc.info

Создавать темы 13-Май-2018 01:20

[Цитировать]

DAAR / Back to Earth (EP)
Жанр: Progressive Rock
Носитель: WEB
Год издания: 2018
Страна исполнителя (группы): Serbia
Аудиокодек: FLAC (*.flac)
Тип рипа: tracks
Битрейт аудио: lossless
Продолжительность: 26:34
Источник (релизер): Bandcamp
Наличие сканов в содержимом раздачи: нет

01. The Mission [00:04:23]
02. Altered State [00:05:36]
03. Back to Earth [00:03:35]
04. Rudiments of Freedom [00:03:57]
05. Noble Messenger [00:03:40]
06. Lure [00:05:20]
Released February 4, 2018

Состав

Goran Milutinovic Ca2 - Vocals, Keyboards
Oliver Arunovic - Guitars, Ukulele
Neca Nedeljkovic - Drums
Vladimir Milivojevic - Lyrics
Juan Pablo Alcaro - Mix & Mastering
Guest:
Nenad Maksimovic - Vocals
Vladimir Lalic - Vocals
Sasa Kostic - Bass
Dejan Ilic Cvika - Bass
Branimir Markovic - Bass

Лог проверки качества

-----------------------
DON'T MODIFY THIS FILE
-----------------------
PERFORMER: auCDtect Task Manager, ver. 1.6.0 RC1 build 1.6.0.1Copyright (c) 2008-2010 y-soft. All rights reservedhttp://y-soft.org
ANALYZER: auCDtect: CD records authenticity detector, version 0.8.2Copyright (c) 2004 Oleg Berngardt. All rights reserved.Copyright (c) 2004 Alexander Djourik. All rights reserved.
FILE: DAAR - Back to Earth - 06 Lure.flac Size: 34939164 Hash: D5196480E8BD526C235BACAFCD714056 Accuracy: -m0 Conclusion: CDDA 99% Signature: 7DEAFD6A420FAD3C2BD4E0226330A9D21C6589C3FILE: DAAR - Back to Earth - 05 Noble Messenger.flac Size: 25633041 Hash: 2E87CB417F98B8CCBC5BAEF4BA53D131 Accuracy: -m0 Conclusion: CDDA 100% Signature: 944416C4F15F5F101893D3671C8A658E5595E7DDFILE: DAAR - Back to Earth - 04 Rudiments of Freedom.flac Size: 28055093 Hash: 1DF1DB81341BFB239E05813D17A472E8 Accuracy: -m0 Conclusion: CDDA 100% Signature: 5B6BE6C2786BC1EDA1825F24614D89E52D8D02EFFILE: DAAR - Back to Earth - 03 Back to Earth.flac Size: 27128071 Hash: 5B3E04A06E0E7FD74C81DD869EC5DB87 Accuracy: -m0 Conclusion: CDDA 100% Signature: F17AEC71CFBB9BAD581A405DE1F19F644D7777DFFILE: DAAR - Back to Earth - 02 Altered State.flac Size: 40368307 Hash: 5D314CE3B7D820664B4479B43144F3E6 Accuracy: -m0 Conclusion: CDDA 100% Signature: 4FC41475AFFD9DF56C01D3C0A75C2C5CE241EF35FILE: DAAR - Back to Earth - 01 The Mission.flac Size: 32482231 Hash: 1C52C3C939955AB7A382313DB4B3BD46 Accuracy: -m0 Conclusion: CDDA 100% Signature: E1835EE7492B03AB137EA773F8FDDF68F438DE60

DRM log

foobar2000 1.3.12 / Dynamic Range Meter 1.1.1log date: 2018-05-11 08:09:46
--------------------------------------------------------------------------------Analyzed: DAAR / Back to Earth--------------------------------------------------------------------------------
DR Peak RMS Duration Track--------------------------------------------------------------------------------DR7 -0.18 dB -8.16 dB 4:24 01-The MissionDR7 -0.18 dB -8.30 dB 5:37 02-Altered StateDR6 -0.20 dB -7.92 dB 3:35 03-Back to EarthDR7 -0.15 dB -9.46 dB 3:58 04-Rudiments of FreedomDR8 -0.18 dB -9.42 dB 3:40 05-Noble MessengerDR8 -0.18 dB -11.41 dB 5:21 06-Lure--------------------------------------------------------------------------------
Number of tracks: 6Official DR value: DR7
Samplerate: 44100 HzChannels: 2Bits per sample: 16Bitrate: 869 kbpsCodec: FLAC================================================================================


[torrentc.info]_t_5560250.torrent
Торрент: Зарегистрирован ·  [ 2018-05-13 01:20 ] ·  092cb95e151f8372d6f29a9031297585980290af

15 KB

Статус: проверено
Скачан: 0 раз
Размер: 184 MB
Оценка: 
(Голосов: 0)
Сказали спасибо: 0  Спасибо
Похожие темы
[Профиль]    [ЛС]
Показать сообщения:    
Ответить на тему

Текущее время: Сегодня 21:57

Часовой пояс: GMT + 7



Вы не можете начинать темы
Вы не можете отвечать на сообщения
Вы не можете редактировать свои сообщения
Вы не можете удалять свои сообщения
Вы не можете голосовать в опросах
Вы не можете прикреплять файлы к сообщениям
Вы можете скачивать файлы