(Symphonic Prog/Neo Prog) [WEB] Jose Maria Blanc (Pablo El Enterrador, La Barca) - La Herencia de Pablo - 2018, FLAC (tracks), lossless

Ответить на тему
Статистика раздачи [Обновить пиров]
Размер:  364 MB   |    Зарегистрирован:  1 месяц 8 дней   |    Скачан:  0 раз

Полного источника не было: Никогда

 
   
 
 
 
Автор Сообщение

torrentc.info

Создавать темы 12-Май-2018 23:01

[Цитировать]

José María Blanc / La Herencia de Pablo
Жанр: Symphonic Prog/Neo Prog
Носитель: WEB
Год издания: 2018
Страна исполнителя (группы): Argentina
Аудиокодек: FLAC (*.flac)
Тип рипа: tracks
Битрейт аудио: lossless
Продолжительность: 51:58
Источник (релизер): Bandcamp
Наличие сканов в содержимом раздачи: нет

01. Eclipse [00:03:36]
02. Miro al cielo que no tengo [00:09:01]
03. ¿ Quién sabe algo ? [00:07:01]
04. El garante - 1ra parte - Introducción al infierno [00:06:24]
05. El garante - 2da parte - Sobre las sombras [00:07:35]
06. Limonero del descanso [00:03:53]
07. Crece [00:03:44]
08. La palabra final [00:04:29]
09. A tu corazón [00:06:10]
Released March 23, 2018--

Состав

José María Blanc (Pablo El Enterrador, La Barca): Keyboards, Vocals
Jorge Urquilla (La Barca): Keyboards
Pablo López (Pablo El Enterrador): Guitars
With:
Iván Louro: Drums
Ariel Martín: Bass
Pepe Moscuen: Bass
Sergio Schegtel: Drums
Marcelo Sali (Pablo El Enterrador): Drums

Лог проверки качества

-----------------------
DON'T MODIFY THIS FILE
-----------------------
PERFORMER: auCDtect Task Manager, ver. 1.6.0 RC1 build 1.6.0.1Copyright (c) 2008-2010 y-soft. All rights reservedhttp://y-soft.org
ANALYZER: auCDtect: CD records authenticity detector, version 0.8.2Copyright (c) 2004 Oleg Berngardt. All rights reserved.Copyright (c) 2004 Alexander Djourik. All rights reserved.
FILE: Jose Maria Blanc - La Herencia de Pablo - (2018) - 09 A tu corazón.flac Size: 45947062 Hash: 3DF55741B434682BFBCE52C4BB0FFCA5 Accuracy: -m0 Conclusion: CDDA 100% Signature: E15C98BFF62306E242E91F8D573A2C246922B079FILE: Jose Maria Blanc - La Herencia de Pablo - (2018) - 08 La palabra final.flac Size: 33047994 Hash: 5E5A58E6A1FFDA61E63A38A86F3A1B8A Accuracy: -m0 Conclusion: CDDA 100% Signature: 2EEBAA3F483A3D9C4B530BC46F5C2ECC468F85AEFILE: Jose Maria Blanc - La Herencia de Pablo - (2018) - 07 Crece.flac Size: 25417513 Hash: C7FC9DECDF05F21E557F2DF61D44A410 Accuracy: -m0 Conclusion: CDDA 100% Signature: 432BCEC42074DB942484F6A70454D3FE358061E6FILE: Jose Maria Blanc - La Herencia de Pablo - (2018) - 06 Limonero del descanso.flac Size: 30107527 Hash: D92874BA88C5F0C3CB5ACDB8FEF6B4F8 Accuracy: -m0 Conclusion: CDDA 100% Signature: 6764279C2228A609DE35428C188A78EBB7715FF6FILE: Jose Maria Blanc - La Herencia de Pablo - (2018) - 05 El garante - 2da parte - Sobre las sombras.flac Size: 52325128 Hash: 3C98773B5E2A10E5E9035367CD2D559E Accuracy: -m0 Conclusion: CDDA 100% Signature: D9E05E6E40EA27B4BDA09CBB8C0E4199E78CE3A2FILE: Jose Maria Blanc - La Herencia de Pablo - (2018) - 04 El garante - 1ra parte - Introducción al infierno.flac Size: 47438008 Hash: 96242719AE36DCBCD19C5C83CE3A7412 Accuracy: -m0 Conclusion: CDDA 100% Signature: 24CEBB178E1884F4AE7557C822F4702F4C33E493FILE: Jose Maria Blanc - La Herencia de Pablo - (2018) - 03 ¿ Quién sabe algo -.flac Size: 48547373 Hash: 039EB6D0289A172AE14347219FE02CBB Accuracy: -m0 Conclusion: CDDA 100% Signature: 9EDE7EE1233D92274106B4EDB47CA0D137E36DFFFILE: Jose Maria Blanc - La Herencia de Pablo - (2018) - 02 Miro al cielo que no tengo.flac Size: 69631434 Hash: B0DE260322EBF7FBD194968CF090D63F Accuracy: -m0 Conclusion: CDDA 100% Signature: FF866B914AB4E6C46064688B0995B870007D67BCFILE: Jose Maria Blanc - La Herencia de Pablo - (2018) - 01 Eclipse.flac Size: 26494011 Hash: F8FA3B2F178B1BCD3F4A780B4B9A5016 Accuracy: -m0 Conclusion: CDDA 100% Signature: 17298A3FD133BEE77A639F5662F7661F41F005BF

DRM log

foobar2000 1.3.12 / Dynamic Range Meter 1.1.1log date: 2018-05-08 11:34:44
--------------------------------------------------------------------------------Analyzed: José María Blanc / La Herencia de Pablo--------------------------------------------------------------------------------
DR Peak RMS Duration Track--------------------------------------------------------------------------------DR9 -0.69 dB -11.06 dB 3:37 01-EclipseDR9 -0.63 dB -11.01 dB 9:01 02-Miro al cielo que no tengoDR8 0.00 dB -11.02 dB 7:01 03-¿ Quién sabe algo ?DR9 -0.52 dB -11.02 dB 6:25 04-El garante - 1ra parte - Introducción al infiernoDR9 -0.63 dB -11.00 dB 7:35 05-El garante - 2da parte - Sobre las sombrasDR9 -0.45 dB -11.01 dB 3:54 06-Limonero del descansoDR9 -0.26 dB -11.02 dB 3:45 07-CreceDR8 -1.94 dB -11.01 dB 4:30 08-La palabra finalDR10 -0.11 dB -10.99 dB 6:11 09-A tu corazón--------------------------------------------------------------------------------
Number of tracks: 9Official DR value: DR9
Samplerate: 44100 HzChannels: 2Bits per sample: 16Bitrate: 989 kbpsCodec: FLAC================================================================================
--


[torrentc.info]_t_5559040.torrent
Торрент: Зарегистрирован ·  [ 2018-05-12 22:57 ] ·  723b33348e867bb2bab4869ec30b9f250be4fd07

16 KB

Статус: проверено
Скачан: 0 раз
Размер: 364 MB
Оценка: 
(Голосов: 0)
Сказали спасибо: 0  Спасибо
Похожие темы
[Профиль]    [ЛС]
Показать сообщения:    
Ответить на тему

Текущее время: Сегодня 15:13

Часовой пояс: GMT + 7



Вы не можете начинать темы
Вы не можете отвечать на сообщения
Вы не можете редактировать свои сообщения
Вы не можете удалять свои сообщения
Вы не можете голосовать в опросах
Вы не можете прикреплять файлы к сообщениям
Вы можете скачивать файлы