(Eclectic Prog/Jazz-funk/Fusion/Jam) [WEB] Swimmer - 5 releases Collection (2016-2018), FLAC (tracks), lossless

Ответить на тему
Статистика раздачи [Обновить пиров]
Размер:  2.09 GB   |    Зарегистрирован:  3 месяца 5 дней   |    Скачан:  0 раз

Полного источника не было: Никогда

 
   
 
 
 
Автор Сообщение

torrentc.info

Создавать темы 12-Май-2018 23:01

[Цитировать]

Swimmer

Collection [so far] (2016-2018)
Жанр: Eclectic Prog/Jazz-funk/Fusion/Jam | Годы издания: 2016-2018 | Страна: USA
Источник: bandcamp.com | Аудио кодек: FLAC | Тип рипа: tracks | Битрейт аудио: lossless
Продолжительность: 1:48:38 + 0:42:26 + 1:57:03 + 0:40:36 + 1:08:30
2016 - Live Winter Sampler Трэклист:
1. Hyperbole 11:46
2. The Impossible Engineer 12:01
3. 5 Seed and Feeble Feat. Eli Winderman 16:57
4. Godmeat >T.A.C.O 14:44
5. Undercover Junkie 06:40
6. Tasty Jackson 13:58
7. The Shwack 14:07
8. Languid 16:19
9. Clam Dream 02:02
Total time: 1:48:38

Об альбоме/исполнителе

released February 16, 2016
Compilation of live recordings from Nectar's, Burlington VT and The Stone Church, Newmarket, NH.
Special thanks to our audio engineers for these nights:
Nectar's: Sergei Ushakov
Stone Church: David Thurston

Музыканты

Matt Dolliver
Cotter Ellis
Joe Agnello
Jack Vignone
Paul Klein

DRM log

foobar2000 1.3.8 / Dynamic Range Meter 1.1.1log date: 2016-06-26 13:08:24
--------------------------------------------------------------------------------Analyzed: Swimmer / Live Winter Sampler--------------------------------------------------------------------------------
DR Peak RMS Duration Track--------------------------------------------------------------------------------DR11 -0.12 dB -12.78 dB 11:47 01-HyperboleDR10 0.00 dB -11.82 dB 12:01 02-The Impossible EngineerDR11 -0.38 dB -13.50 dB 16:58 03-5 Seed and Feeble Feat. Eli WindermanDR10 -0.21 dB -12.72 dB 14:45 04-Godmeat >T.A.C.ODR12 0.00 dB -14.42 dB 6:40 05-Undercover JunkieDR14 0.00 dB -17.11 dB 13:58 06-Tasty JacksonDR14 0.00 dB -16.92 dB 14:07 07-The ShwackDR13 0.00 dB -15.50 dB 16:19 08-LanguidDR11 -0.10 dB -15.33 dB 2:02 09-Clam Dream--------------------------------------------------------------------------------
Number of tracks: 9Official DR value: DR12
Samplerate: 44100 HzChannels: 2Bits per sample: 16Bitrate: 796 kbpsCodec: FLAC================================================================================

Audio checkingauCDtect log

-----------------------
DON'T MODIFY THIS FILE
-----------------------
PERFORMER: auCDtect Task Manager, ver. 1.6.0 RC1 build 1.6.0.1Copyright (c) 2008-2010 y-soft. All rights reservedhttp://y-soft.org
ANALYZER: auCDtect: CD records authenticity detector, version 0.8.2Copyright (c) 2004 Oleg Berngardt. All rights reserved.Copyright (c) 2004 Alexander Djourik. All rights reserved.
FILE: Swimmer - Live Winter Sampler - 09 Clam Dream.flac Size: 12268308 Hash: B4AB15FB4C91AE0190453F3A499B04D7 Accuracy: -m0 Conclusion: CDDA 99% Signature: 31E303ED0B64EC71E450DBD794A86F3CB57C3D4CFILE: Swimmer - Live Winter Sampler - 08 Languid.flac Size: 91276323 Hash: FF66868BE84CA46D076F49D3BE664D25 Accuracy: -m0 Conclusion: CDDA 100% Signature: 55F94FC97CCD5BDB3DA44B3308A4F803D0671B6DFILE: Swimmer - Live Winter Sampler - 07 The Shwack.flac Size: 83266166 Hash: 9242208A3B682D7B543E01B7CA35A04B Accuracy: -m0 Conclusion: MPEG 95% Signature: 906D63D7AF3D5DE4525EA197AA7F10874CC90B52FILE: Swimmer - Live Winter Sampler - 06 Tasty Jackson.flac Size: 78980405 Hash: D783210B6A84A4B090B76492965850B7 Accuracy: -m0 Conclusion: MPEG 95% Signature: 59700194450EE9AC680DA3E7BD837BBF55D8E8FEFILE: Swimmer - Live Winter Sampler - 05 Undercover Junkie.flac Size: 39968226 Hash: EA3A2E3CBD9B6A404A7BF64749229E7F Accuracy: -m0 Conclusion: MPEG 95% Signature: 4C3DD0FBA4438D5810BED0E1EF39EFC48B053241FILE: Swimmer - Live Winter Sampler - 04 Godmeat -T.A.C.O.flac Size: 80893998 Hash: F702172E646C5E8B75A75058CF5C308F Accuracy: -m0 Conclusion: MPEG 95% Signature: F3BEB982996C5C403D3D8276878A758131C225D5FILE: Swimmer - Live Winter Sampler - 03 5 Seed and Feeble Feat. Eli Winderman.flac Size: 90783369 Hash: 242352C28C76A5FB8594E0715811A783 Accuracy: -m0 Conclusion: MPEG 95% Signature: D9F2A9A2B6CE3E9325AB67AE60C323F034D68B4EFILE: Swimmer - Live Winter Sampler - 02 The Impossible Engineer.flac Size: 65247941 Hash: 977F0FA8AD86D07D5FCC96DB23E8A003 Accuracy: -m0 Conclusion: MPEG 95% Signature: FEFFD23DF0711A870833973FDEEF9E2BF81A1EB9FILE: Swimmer - Live Winter Sampler - 01 Hyperbole.flac Size: 62099625 Hash: 5A32A2C97A5FA8544A04C4E9947210AB Accuracy: -m0 Conclusion: MPEG 95% Signature: 7B6CDE344A886D0D128B0F59A97E100EE822AA8A

Spectras



2016 - Swimmer or the Egg Трэклист:
1. 5 Seed and Feeble 08:14
2. Hyperbole 14:23
3. Sea Cerebral 14:33
4. Jam>Donkey Pimp 05:14
Total time: 42:26

Музыканты

Matt Dolliver
Cotter Ellis
Joe Agnello
Jack Vignone
Paul Klein

Об альбоме/исполнителе

released June 22, 2016

DRM log

foobar2000 1.3.8 / Dynamic Range Meter 1.1.1log date: 2016-06-26 12:53:47
--------------------------------------------------------------------------------Analyzed: Swimmer / Swimmer or the Egg?--------------------------------------------------------------------------------
DR Peak RMS Duration Track--------------------------------------------------------------------------------DR13 -1.00 dB -17.02 dB 8:14 01-5 Seed and FeebleDR14 -1.00 dB -17.17 dB 14:23 02-HyperboleDR12 -0.97 dB -15.75 dB 14:34 03-Sea CerebralDR13 -1.15 dB -16.42 dB 5:15 04-Jam>Donkey Pimp--------------------------------------------------------------------------------
Number of tracks: 4Official DR value: DR13
Samplerate: 44100 HzChannels: 2Bits per sample: 16Bitrate: 719 kbpsCodec: FLAC================================================================================

Audio checkingauCDtect log

-----------------------
DON'T MODIFY THIS FILE
-----------------------
PERFORMER: auCDtect Task Manager, ver. 1.6.0 RC1 build 1.6.0.1Copyright (c) 2008-2010 y-soft. All rights reservedhttp://y-soft.org
ANALYZER: auCDtect: CD records authenticity detector, version 0.8.2Copyright (c) 2004 Oleg Berngardt. All rights reserved.Copyright (c) 2004 Alexander Djourik. All rights reserved.
FILE: Swimmer - Swimmer or the Egg- - 04 Jam-Donkey Pimp.flac Size: 28406624 Hash: 88FC81B52FE66525E82410997700A9F5 Accuracy: -m0 Conclusion: MPEG 98% Signature: 8C03267336ED9EFD84F239BA2053FCFDDAA3F241FILE: Swimmer - Swimmer or the Egg- - 03 Sea Cerebral.flac Size: 77586011 Hash: 2A0BF88C81A84964F8D0C8273A394E1D Accuracy: -m0 Conclusion: MPEG 95% Signature: A06DC19DC59C0497B20D2B03AC0C607FD7AC68D4FILE: Swimmer - Swimmer or the Egg- - 02 Hyperbole.flac Size: 80079451 Hash: 0CB62373B9AF548EBCAA575698DEADA9 Accuracy: -m0 Conclusion: CDDA 100% Signature: 114397D53969F7F82AAE0FEB490435D2BC328C20FILE: Swimmer - Swimmer or the Egg- - 01 5 Seed and Feeble.flac Size: 44844863 Hash: 8BB26913684B0446A7BF3509B1A0D3B4 Accuracy: -m0 Conclusion: CDDA 100% Signature: 56A0FC069B3D90727C8A5E379554BADD736958AE

Spectras


2016 - I've Been Wearing These Socks All Month Трэклист:
1. God Meat (8:04)
2. Hyperbole (15:51)
3. I Don't Mind (5:50)
4. Undercover Junkie (6:20)
5. Catch (11:48)
6. Curious Spaniard (11:08)
7. Languid (17:36)
8. UrSuhFur (6:24)
9. Shwack (19:41)
10. The Impossible Engineer (14:15)
Total time: 1:57:03

Об альбоме/исполнителе

Taken from multiple recordings throughout August 16' residency at Nectar's in Burlington, VT
released September 18, 2016

DRM log

foobar2000 1.3.8 / Dynamic Range Meter 1.1.1log date: 2016-09-19 20:44:24
--------------------------------------------------------------------------------Analyzed: Swimmer / "I've Been Wearing These Socks All Month."--------------------------------------------------------------------------------
DR Peak RMS Duration Track--------------------------------------------------------------------------------DR12 0.00 dB -13.82 dB 8:05 01-God MeatDR12 0.00 dB -14.49 dB 15:52 02-HyperboleDR12 0.00 dB -14.02 dB 5:51 03-I Don't MindDR11 0.00 dB -13.34 dB 6:20 04-Undercover JunkieDR11 0.00 dB -13.20 dB 11:49 05-CatchDR11 -0.06 dB -13.62 dB 11:09 06-Curious SpaniardDR11 0.00 dB -13.48 dB 17:36 07-LanguidDR11 0.00 dB -12.38 dB 6:25 08-UrSuhFurDR12 -0.12 dB -15.70 dB 19:41 09-ShwackDR10 -0.10 dB -12.14 dB 14:15 10-The Impossible Engineer--------------------------------------------------------------------------------
Number of tracks: 10Official DR value: DR11
Samplerate: 44100 HzChannels: 2Bits per sample: 16Bitrate: 770 kbpsCodec: FLAC================================================================================

Audio checkingauCDtect log

-----------------------
DON'T MODIFY THIS FILE
-----------------------
PERFORMER: auCDtect Task Manager, ver. 1.6.0 RC1 build 1.6.0.1Copyright (c) 2008-2010 y-soft. All rights reservedhttp://y-soft.org
ANALYZER: auCDtect: CD records authenticity detector, version 0.8.2Copyright (c) 2004 Oleg Berngardt. All rights reserved.Copyright (c) 2004 Alexander Djourik. All rights reserved.
FILE: Swimmer - -I've Been Wearing These Socks All Month.- - 10 The Impossible Engineer.flac Size: 82471447 Hash: C4CBE0F8B0834288F5740352E3754119 Accuracy: -m0 Conclusion: MPEG 95% Signature: 46AB22F005922C92E052F500C7EF3B324FA466DCFILE: Swimmer - -I've Been Wearing These Socks All Month.- - 09 Shwack.flac Size: 111802021 Hash: EF3636A366ADE0536642D9E682457080 Accuracy: -m0 Conclusion: MPEG 95% Signature: A61EA11BC97DD25DFEDFF486A8DB305BC25616D3FILE: Swimmer - -I've Been Wearing These Socks All Month.- - 08 UrSuhFur.flac Size: 38372687 Hash: 143F4BDE8995FFCE2455BAE4370AC1A9 Accuracy: -m0 Conclusion: MPEG 95% Signature: 8FDC94D28FC4C33A2754473D05962FCEB46CD841FILE: Swimmer - -I've Been Wearing These Socks All Month.- - 07 Languid.flac Size: 104598667 Hash: 066CD2F649AB40F8AC1253316F09277C Accuracy: -m0 Conclusion: MPEG 95% Signature: EEE41049229BA773575F5533F96A78E5521C9B52FILE: Swimmer - -I've Been Wearing These Socks All Month.- - 06 Curious Spaniard.flac Size: 64547601 Hash: EF5E7C81818A25409BD12F5AE915F644 Accuracy: -m0 Conclusion: MPEG 95% Signature: D4FC3940F939FC1530585303D865AC2B1A737430FILE: Swimmer - -I've Been Wearing These Socks All Month.- - 05 Catch.flac Size: 66636380 Hash: FFC0E8B3F113139915239788FD155BEE Accuracy: -m0 Conclusion: MPEG 95% Signature: D78E2BA975B5851C96365CEC89781C365267A4B6FILE: Swimmer - -I've Been Wearing These Socks All Month.- - 04 Undercover Junkie.flac Size: 35973219 Hash: 9E589E75C1C8AC2662EFC0F25216FBD0 Accuracy: -m0 Conclusion: MPEG 95% Signature: 1771DEA405EE1C72DFC66AD695B3E4A311B37CA3FILE: Swimmer - -I've Been Wearing These Socks All Month.- - 03 I Don't Mind.flac Size: 30505288 Hash: 30DBE2887831EA9E07070C8C8627425F Accuracy: -m0 Conclusion: MPEG 95% Signature: F7140D32B4890EE080953EFFD74E6CAE145157B7FILE: Swimmer - -I've Been Wearing These Socks All Month.- - 02 Hyperbole.flac Size: 87161459 Hash: 0F97AB24E60B41D5C57FEC8BB13776C4 Accuracy: -m0 Conclusion: MPEG 95% Signature: A80717E806030927F23AEDB44CE47B5DD0466679FILE: Swimmer - -I've Been Wearing These Socks All Month.- - 01 God Meat.flac Size: 47586162 Hash: CC8551FAB06748C243435EF770E980A1 Accuracy: -m0 Conclusion: MPEG 95% Signature: 634498D333C8C5B2A08FA5605C157BE16BA370ED

2017 - No Shape

Трэклист:
1. Godmeat (7:58)
2. 5 Seed And Feeble (6:05)
3. Shwack (4:57)
4. Languid (7:09)
5. Undercover Junkie (5:08)
6. The Curious Spaniard (9:17)
Total time: 40:36

Об альбоме/исполнителе

released June 18, 2017

DRM log

foobar2000 1.3.8 / Dynamic Range Meter 1.1.1log date: 2018-05-09 16:55:09
--------------------------------------------------------------------------------Analyzed: Swimmer / No Shape--------------------------------------------------------------------------------
DR Peak RMS Duration Track--------------------------------------------------------------------------------DR8 -0.10 dB -10.45 dB 7:59 01-GodmeatDR9 -0.10 dB -11.30 dB 6:06 02-5 Seed and FeebleDR10 -0.10 dB -11.45 dB 4:57 03-ShwackDR10 -0.10 dB -11.64 dB 7:09 04-LanguidDR9 -0.10 dB -10.47 dB 5:08 05-Undercover JunkieDR7 -0.10 dB -9.61 dB 9:17 06-The Curious Spaniard--------------------------------------------------------------------------------
Number of tracks: 6Official DR value: DR9
Samplerate: 44100 HzChannels: 2Bits per sample: 16Bitrate: 921 kbpsCodec: FLAC================================================================================

auCDtect log

-----------------------
DON'T MODIFY THIS FILE
-----------------------
PERFORMER: auCDtect Task Manager, ver. 1.6.0 RC1 build 1.6.0.1Copyright (c) 2008-2010 y-soft. All rights reservedhttp://y-soft.org
ANALYZER: auCDtect: CD records authenticity detector, version 0.8.2Copyright (c) 2004 Oleg Berngardt. All rights reserved.Copyright (c) 2004 Alexander Djourik. All rights reserved.
FILE: Swimmer - No Shape - 01 Godmeat.flac Size: 54415024 Hash: 7123FDF99A3E2E3E232ADC7EA3B3F986 Accuracy: -m0 Conclusion: CDDA 100% Signature: 74C6927BE0E35B11B87921810DB2433C77FC773FFILE: Swimmer - No Shape - 02 5 Seed and Feeble.flac Size: 38006332 Hash: F7680FD798AF9B63DD99C9CA39529A35 Accuracy: -m0 Conclusion: CDDA 100% Signature: 88EC5D743188EAED157B5DB186789110592EEBA4FILE: Swimmer - No Shape - 03 Shwack.flac Size: 32718891 Hash: 1858FE74528882A986AED120EA9E8F9B Accuracy: -m0 Conclusion: CDDA 99% Signature: D9034C0CBC14D00323A51BA9046923896FDA80FDFILE: Swimmer - No Shape - 04 Languid.flac Size: 45547521 Hash: 10D1F71EBB91B9D57AAC9BAA5390FE80 Accuracy: -m0 Conclusion: CDDA 100% Signature: F42346C2D1D0F1677A98C0513A15EBD2A970D980FILE: Swimmer - No Shape - 05 Undercover Junkie.flac Size: 34562722 Hash: 34E27CBEF1837B59EECEF370A3E275C9 Accuracy: -m0 Conclusion: CDDA 100% Signature: 4B47A2CF7910F93F70AE0A556C0A96E4EDAAEFCEFILE: Swimmer - No Shape - 06 The Curious Spaniard.flac Size: 64257339 Hash: A012D64066EDBC49E84C342D621C2A86 Accuracy: -m0 Conclusion: CDDA 100% Signature: F71269E86505AEC27CA3A2E214D4A8F307ADF923

2018 - Throw it Out

Трэклист:
1.Would Be (6:53)
2.Turko (5:17)
3.The Impossible Engineer (12:22)
4.Catch (6:00)
5.J.I.G (8:02)
6.Hyperbole (11:31)
7.Superbomb (7:16)
8.Family Fugue (1:35)
9.Sea Cerebral (9:29)
Total time: 1:08:30

Музыканты

Cotter Ellis - Drums & Vox
Joe Agnello - Guitar & Vox
Matt Dolliver - Keyboards & Saxophone
John Vignone - Bass & Vox
Paul Klein - Guitar

Об альбоме/исполнителе

Swimmer's debut full-length studio album.
released May 3, 2018

DRM log

foobar2000 1.3.8 / Dynamic Range Meter 1.1.1log date: 2018-05-09 16:59:13
--------------------------------------------------------------------------------Analyzed: Swimmer / Throw it Out--------------------------------------------------------------------------------
DR Peak RMS Duration Track--------------------------------------------------------------------------------DR6 -0.10 dB -7.62 dB 6:54 01-Would BeDR8 -0.10 dB -9.07 dB 5:18 02-TurkoDR8 -0.10 dB -10.15 dB 12:23 03-The Impossible EngineerDR7 -0.10 dB -9.12 dB 6:01 04-CatchDR8 -0.10 dB -8.70 dB 8:02 05-J.I.GDR8 -0.10 dB -8.96 dB 11:32 06-HyperboleDR7 -0.10 dB -8.54 dB 7:16 07-SuperbombDR10 -5.94 dB -19.62 dB 1:36 08-Family FugueDR8 -0.10 dB -9.54 dB 9:29 09-Sea Cerebral--------------------------------------------------------------------------------
Number of tracks: 9Official DR value: DR8
Samplerate: 44100 HzChannels: 2Bits per sample: 16Bitrate: 866 kbpsCodec: FLAC================================================================================

auCDtect log

-----------------------
DON'T MODIFY THIS FILE
-----------------------
PERFORMER: auCDtect Task Manager, ver. 1.6.0 RC1 build 1.6.0.1Copyright (c) 2008-2010 y-soft. All rights reservedhttp://y-soft.org
ANALYZER: auCDtect: CD records authenticity detector, version 0.8.2Copyright (c) 2004 Oleg Berngardt. All rights reserved.Copyright (c) 2004 Alexander Djourik. All rights reserved.
FILE: Swimmer - Throw it Out - 09 Sea Cerebral.flac Size: 61781365 Hash: EED0C543C07C7308BA44FAEDB178FE7F Accuracy: -m0 Conclusion: CDDA 100% Signature: A4704BEC2E4D3861CD4B5217D40BE7BE8680D1A5FILE: Swimmer - Throw it Out - 08 Family Fugue.flac Size: 8333093 Hash: F91785F2E562739BC6B1A2125E0563C5 Accuracy: -m0 Conclusion: CDDA 100% Signature: 11A55A10425EE76FA092F0EE28820EDB432B3D97FILE: Swimmer - Throw it Out - 07 Superbomb.flac Size: 48046701 Hash: A776AB9579C2AE8A01033123BFEB50BF Accuracy: -m0 Conclusion: CDDA 100% Signature: B429F115E8DDCD73579A85D4668222F53C869D66FILE: Swimmer - Throw it Out - 06 Hyperbole.flac Size: 79889553 Hash: 465AEF15AFCA4BE80891F94CD0AB1C65 Accuracy: -m0 Conclusion: CDDA 100% Signature: 7DE2261C77841C63AA50F8FB0C33831D90407F3FFILE: Swimmer - Throw it Out - 05 J.I.G.flac Size: 55436880 Hash: 24086B87C3345823951C9E1493323EA7 Accuracy: -m0 Conclusion: CDDA 100% Signature: 4772D41B3CE2F572718C8C589166CF1FA48FECA6FILE: Swimmer - Throw it Out - 04 Catch.flac Size: 40449924 Hash: 5986A4017FC580E578C9666578EE148C Accuracy: -m0 Conclusion: CDDA 100% Signature: BA35D0EDC2BFEA5B17643763FE6359D81ABF0AB4FILE: Swimmer - Throw it Out - 03 The Impossible Engineer.flac Size: 84961852 Hash: FFBA4F4B235B8DBA67BCBF9BAC06A5E7 Accuracy: -m0 Conclusion: CDDA 100% Signature: 8B6F00D9AE335601DECF8F4C686A685D0A5F3AFFFILE: Swimmer - Throw it Out - 02 Turko.flac Size: 34883207 Hash: 53E87320DFF6436801140633908D11EB Accuracy: -m0 Conclusion: CDDA 100% Signature: 58C55DFDCD4AE6451E68B18FA2BFF755EA7B21D9FILE: Swimmer - Throw it Out - 01 Would Be.flac Size: 49227433 Hash: B2B4593A5F9AA5DA49FC5C97D101F137 Accuracy: -m0 Conclusion: CDDA 100% Signature: 7AA24E04018834A1F14D6E2F7858AFC5D2B2D661
Особая благодарность ув.verbiya за разрешение объединить раздачи.--


[torrentc.info]_t_5247468.torrent
Торрент: Зарегистрирован ·  [ 2018-05-12 22:57 ] ·  e27276893c49c2bfdcca91f8e424b9da619440df

16 KB

Статус: проверено
Скачан: 0 раз
Размер: 2.09 GB
Оценка: 
(Голосов: 0)
Сказали спасибо: 0  Спасибо
Похожие темы
[Профиль]    [ЛС]
Показать сообщения:    
Ответить на тему

Текущее время: Сегодня 05:31

Часовой пояс: GMT + 7



Вы не можете начинать темы
Вы не можете отвечать на сообщения
Вы не можете редактировать свои сообщения
Вы не можете удалять свои сообщения
Вы не можете голосовать в опросах
Вы не можете прикреплять файлы к сообщениям
Вы можете скачивать файлы