Когда пробьет 8 склянок / When Eight Bells Toll (Этьен Перье / Etienne Perier) [1971, Великобритания, боевик, криминал, детектив, приключения, BDRip] MVO (R5) + Sub Eng + Original Eng

Ответить на тему
Статистика раздачи [Обновить пиров]
Размер:  1.46 GB   |    Зарегистрирован:  5 месяцев 5 дней   |    Скачан:  0 раз

Полного источника не было: Никогда

 
   
 
 
 
Автор Сообщение

torrentc.info

Создавать темы 12-Май-2018 11:29

[Цитировать]

Когда пробьет 8 склянок / When Eight Bells Toll

Страна: Великобритания
Жанр: боевик, криминал, детектив, приключения
Год выхода: 1971
Продолжительность: 01:34:13
Перевод: Профессиональный (многоголосый закадровый) R5
Субтитры: английские
Оригинальная аудиодорожка: английский

Режиссер: Этьен Перье / Etienne Perier
В ролях: Энтони Хопкинс, Роберт Морли, Натали Делон, Джек Хоукинс, Корин Редгрейв, Дерек Бонд, Ферди Мэйн, Морис Роевз, Леон Коллинз, Венди Элнатт
Описание: Исчез корабль, на котором находился особо ценный груз: немалое количество слитков золота. Очевидно, что в этом районе моря бандитствуют пираты. Кто они? Где их логово? Как найти на них управу? Для того, чтобы попытаться ответить на целую кучу вопросов, в опасный регион отправляется спецагент.
Сэмпл
Качество видео: BDRip
Формат файла: AVI
Видео: 720x304 (2.37:1), 23.976 fps, XviD build 73 ~1816 kbps avg, 0.35 bit/pixel
Аудио: 48 kHz, AC3 Dolby Digital, 2/0 (L,R) ch, ~192 kbps - многоголосый
Аудио: 48 kHz, AC3 Dolby Digital, 2/0 (L,R) ch, ~192 kbps - оригинал
Формат файла субтитров: softsub (SRT)

Источник: Torrentc

http://Torrentc/forum/viewtopic.php?t=630636
немного разное наполнение кадра

MediaInfo

GeneralComplete name : H:\When.Eight.Bells.Toll.1971.bdrip_[1.46]_[teko]\When.Eight.Bells.Toll.1971.bdrip_[1.46].aviFormat : AVIFormat/Info : Audio Video InterleaveFile size : 1.46 GiBDuration : 1h 34mnOverall bit rate : 2 215 KbpsWriting application : VirtualDubMod 1.5.10.3 | www.virtualdub-fr.org || (build 2550/release)Writing library : VirtualDubMod build 2550/release
VideoID : 0Format : MPEG-4 VisualFormat profile : Advanced Simple@L5Format settings, BVOP : 2Format settings, QPel : NoFormat settings, GMC : No warppointsFormat settings, Matrix : CustomCodec ID : XVIDCodec ID/Hint : XviDDuration : 1h 34mnBit rate : 1 817 KbpsWidth : 720 pixelsHeight : 304 pixelsDisplay aspect ratio : 2.35:1Frame rate : 23.976 (23976/1000) fpsColor space : YUVChroma subsampling : 4:2:0Bit depth : 8 bitsScan type : ProgressiveCompression mode : LossyBits/(Pixel*Frame) : 0.346Stream size : 1.20 GiB (82%)Writing library : XviD 73
Audio #1ID : 1Format : AC-3Format/Info : Audio Coding 3Mode extension : CM (complete main)Format settings, Endianness : BigCodec ID : 2000Duration : 1h 34mnBit rate mode : ConstantBit rate : 192 KbpsChannel(s) : 2 channelsChannel positions : Front: L RSampling rate : 48.0 KHzFrame rate : 31.250 fps (1536 spf)Compression mode : LossyStream size : 129 MiB (9%)Alignment : Split accross interleavesInterleave, duration : 42 ms (1.00 video frame)Interleave, preload duratio : 500 ms
Audio #2ID : 2Format : AC-3Format/Info : Audio Coding 3Mode extension : CM (complete main)Format settings, Endianness : BigCodec ID : 2000Duration : 1h 34mnBit rate mode : ConstantBit rate : 192 KbpsChannel(s) : 2 channelsChannel positions : Front: L RSampling rate : 48.0 KHzFrame rate : 31.250 fps (1536 spf)Compression mode : LossyStream size : 129 MiB (9%)Alignment : Split accross interleavesInterleave, duration : 42 ms (1.00 video frame)Interleave, preload duratio : 500 ms
:--


[torrentc.info]_t_5559187.torrent
Торрент: Зарегистрирован ·  [ 2018-05-12 11:29 ] ·  ee3cd64d0cf9fa6a1a3ef0d5fd0b26cfbadc050f

15 KB

Статус: проверено
Скачан: 0 раз
Размер: 1.46 GB
Оценка: 
(Голосов: 0)
Сказали спасибо: 0  Спасибо
Похожие темы
[Профиль]    [ЛС]
Показать сообщения:    
Ответить на тему

Текущее время: Сегодня 01:19

Часовой пояс: GMT + 7



Вы не можете начинать темы
Вы не можете отвечать на сообщения
Вы не можете редактировать свои сообщения
Вы не можете удалять свои сообщения
Вы не можете голосовать в опросах
Вы не можете прикреплять файлы к сообщениям
Вы можете скачивать файлы