Список / Alex & The List (Харрис Голдберг / Harris Goldberg) [2018, США, мелодрама, комедия, WEB-DLRip] MVO (Синема УС)

Ответить на тему
 
Автор Сообщение

torrentc.info

Создавать темы 11-Май-2018 22:13

[Цитировать]

Список / Alex & The List Страна: США
Жанр: мелодрама, комедия
Год выхода: 2018
Продолжительность: 01:52:20
Перевод: Любительский (многоголосый закадровый) Синема УС
Субтитры: нет
Режиссёр: Харрис Голдберг / Harris Goldberg
В ролях:
Карен Гиллан, Дженнифер Моррисон, Джули Гонсало, Патрик Фьюджит, Эдди Кэй Томас, ДжоБет Уильямс, Майкл Нури, Лесли-Энн Даун, Боб Гантон, Аарон Стэтон
Описание: Алекс, милый, скромный дрессировщик собак влюблен в великолепную женщину — Кэтрин — умную, талантливую и из хорошей семьи. Кэтрин обожает его чувство юмора, честность и способность слушать. Вынужденный решать популярный вопрос, Алекс был ошеломлен, когда Кэтрин предъявила подробный список хорошо продуманных «улучшений». Она полагает, что изменение недостатков Алекса сделает их идеальной парой.
Алекс сначала инстинктивно отвергает предположение, что ему нужно что-то менять. Однако с появлением угрозы нового конкурента все же решается «выполнить список». Руководствуясь советами друзей — Дэйва, друга детства, лучшей подруги Лили, ее мужа Майкла и их 8-летненго сына Ники, приключение Алекса заставило его пересмотреть и поставить под сомнение свои убеждения, ценности и взгляды на мир.
-Доп. информация: без рекламы.
Источник: Torrentc видео : Alex.and.The.List.2018.1080p.AMZN.WEBRip.DDP5.1.x264-NTG- [img]https://rating.kinopoisk.ru/1093047.gif[/img] -Качество видео: WEB-DLRip
Формат файла: AVI
Видео: 720x304 (2.35:1), 23.976 fps, XviD ~ 1549 kbps avg, 0.295 bit/pixel
Аудио : 48 kHz, AC3 Dolby Digital, 2/0 (L,R) ch, ~192 kbps

MediaInfo

General
Complete name : Alex.and.The.List.2018.WEB-DLRip.avi
Format : AVI
Format/Info : Audio Video Interleave
File size : 1.37 GiB
Duration : 1h 52mn
Overall bit rate : 1 751 Kbps
Writing application : VirtualDubMod 1.5.10.3 | www.virtualdub-fr.org || (build 2550/release)
Writing library : VirtualDubMod build 2550/release
Video
ID : 0
Format : MPEG-4 Visual
Format profile : Advanced Simple@L5
Format settings, BVOP : 1
Format settings, QPel : No
Format settings, GMC : No warppoints
Format settings, Matrix : Default (MPEG)
Codec ID : XVID
Codec ID/Hint : XviD
Duration : 1h 52mn
Bit rate : 1 549 Kbps
Width : 720 pixels
Height : 304 pixels
Display aspect ratio : 2.35:1
Frame rate : 23.976 fps
Color space : YUV
Chroma subsampling : 4:2:0
Bit depth : 8 bits
Scan type : Progressive
Compression mode : Lossy
Bits/(Pixel*Frame) : 0.295
Stream size : 1.22 GiB (88%)
Writing library : XviD 1.2.1 (UTC 2008-12-04)
Audio
ID : 1
Format : AC-3
Format/Info : Audio Coding 3
Mode extension : CM (complete main)
Codec ID : 2000
Duration : 1h 52mn
Bit rate mode : Constant
Bit rate : 192 Kbps
Channel(s) : 2 channels
Channel positions : Front: L R
Sampling rate : 48.0 KHz
Bit depth : 16 bits
Compression mode : Lossy
Stream size : 154 MiB (11%)
Alignment : Split accross interleaves
Interleave, duration : 42 ms (1.00 video frame)
Interleave, preload duration : 500 ms

Скриншот c названием фильма

[img]https://a.radikal.ru/a22/1805/c5/d027ffb85e1ft.jpg[/img]
[Профиль]    [ЛС]
Показать сообщения:    
Ответить на тему

Текущее время: Сегодня 00:17

Часовой пояс: GMT + 7



Вы не можете начинать темы
Вы не можете отвечать на сообщения
Вы не можете редактировать свои сообщения
Вы не можете удалять свои сообщения
Вы не можете голосовать в опросах
Вы не можете прикреплять файлы к сообщениям
Вы не можете скачивать файлы