Чёрная Пантера / Black Panther (Райан Куглер / Ryan Coogler) [2018, США, фантастика, боевик, приключения, BDRip-AVC] Original Eng + Sub Rus

Ответить на тему
 
Автор Сообщение

torrentc.info

Создавать темы 11-Май-2018 17:01

[Цитировать]

-Чёрная Пантера / Black Panther-«Да здравствует король»- -Страна: США
Жанр: фантастика, боевик, приключения
Год выхода: 2018
Продолжительность: 02:14:33-Перевод: Субтитры
Субтитры: русские (полные - Focs)
Оригинальная аудиодорожка: английская-Режиссер: Райан Куглер / Ryan Coogler-В ролях: Чедвик Боузман, Майкл Б. Джордан, Лупита Нионго, Данай Джекесай Гурира, Мартин Фриман, Дэниэл Калуя, Летишиа Райт, Уинстон Дьюк, Стерлинг К. Браун, Анджела Бассетт-Описание: С первого взгляда можно решить, что Ваканда — обычная территория дикой Африки, но это не так. Здесь, в недрах пустынных земель, скрываются залежи уникального металла, способного поглощать вибрацию. Многие пытались добраться до него, разоряя всё на своём пути и принося смерть аборигенам, но каждый раз таинственный дух саванны — Чёрная Пантера — вставал на защиту угнетённых.
Спустя много лет беда снова приходит в Ваканду, и в этот раз враг заручился поддержкой современных технологий. Когда шансов почти не остаётся, Т`Чалла, молодой принц Ваканды, узнаёт, что именно ему предстоит возродить легенду и продолжить вечную борьбу, надев маску Чёрной Пантеры.-[img]https://rating.kinopoisk.ru/623250.gif[/img]- -Качество видео: BDRip-AVC / Black.Panther.2018.REMUX.BluRay.1080p.AVC.DTS-HD.MA7.1-iFT
Формат файла: MKV-Видео: MPEG-4 AVC, 956x400 (2.40:1), 23.976 fps, ~1355 kbps avg, 0.148 bit/pixel
Аудио: 48 kHz, AC3 Dolby Digital, 2/0 (L,R) ch, ~192 kbps avg-

MediaInfo

Complete name               : D:\Раздача\Чёрная Пантера (2018) BDRip-AVC_ivanes20031987.mkv
Format                      : Matroska
Format version              : Version 2
File size                   : 1.46 GiB
Duration                    : 2 h 14 min
Overall bit rate            : 1 550 kb/s
Movie name                  : Чёрная Пантера (2018) BDRip-AVC_ivanes20031987
Encoded date                : UTC 2018-05-07 12:20:59
Writing application         : mkvmerge v4.4.0 ('Die Wiederkehr') сборка от Jan  3 2011 21:40:45
Writing library             : libebml v1.0.0 + libmatroska v1.0.0
Cover                       : Yes
Attachments                 : cover.png
Video
ID                          : 1
Format                      : AVC
Format/Info                 : Advanced Video Codec
Format profile              : High@L4.1
Format settings, CABAC      : Yes
Format settings, RefFrames  : 14 frames
Codec ID                    : V_MPEG4/ISO/AVC
Duration                    : 2 h 14 min
Bit rate                    : 1 355 kb/s
Width                       : 956 pixels
Height                      : 400 pixels
Display aspect ratio        : 2.40:1
Frame rate mode             : Constant
Frame rate                  : 23.976 (24000/1001) FPS
Color space                 : YUV
Chroma subsampling          : 4:2:0
Bit depth                   : 8 bits
Scan type                   : Progressive
Bits/(Pixel*Frame)          : 0.148
Stream size                 : 1.25 GiB (86%)
Title                       : Rip by ivanes20031987
Writing library             : x264 core 152 r2851kMod ba24899
Encoding settings           : cabac=1 / ref=14 / deblock=1:-1:-1 / analyse=0x3:0x113 / me=umh / subme=10 / psy=1 / fade_compensate=0.00 / psy_rd=1.00:0.00 / mixed_ref=1 / me_range=32 / chroma_me=1 / trellis=2 / 8x8dct=1 / cqm=0 / deadzone=21,11 / fast_pskip=0 / chroma_qp_offset=-2 / threads=12 / lookahead_threads=3 / sliced_threads=0 / nr=0 / decimate=0 / interlaced=0 / bluray_compat=0 / constrained_intra=0 / bframes=14 / b_pyramid=2 / b_adapt=2 / b_bias=0 / direct=1 / weightb=1 / open_gop=0 / weightp=2 / keyint=240 / keyint_min=23 / scenecut=40 / intra_refresh=0 / rc_lookahead=60 / rc=2pass / mbtree=0 / bitrate=1355 / ratetol=1.0 / qcomp=0.60 / qpmin=0 / qpmax=69 / qpstep=4 / cplxblur=20.0 / qblur=0.5 / vbv_maxrate=50000 / vbv_bufsize=62500 / nal_hrd=none / filler=0 / ip_ratio=1.40 / pb_ratio=1.30 / aq=1:1.00
Default                     : Yes
Forced                      : No
Audio
ID                          : 2
Format                      : AC-3
Format/Info                 : Audio Coding 3
Format settings, Endianness : Big
Codec ID                    : A_AC3
Duration                    : 2 h 14 min
Bit rate mode               : Constant
Bit rate                    : 192 kb/s
Channel(s)                  : 2 channels
Channel positions           : Front: L R
Sampling rate               : 48.0 kHz
Frame rate                  : 31.250 FPS (1536 SPF)
Bit depth                   : 16 bits
Compression mode            : Lossy
Stream size                 : 185 MiB (12%)
Title                       : Original
Language                    : English
Service kind                : Complete Main
Default                     : Yes
Forced                      : No
Text
ID                          : 3
Format                      : UTF-8
Codec ID                    : S_TEXT/UTF8
Codec ID/Info               : UTF-8 Plain Text
Title                       : Full
Language                    : Russian
Default                     : Yes
Forced                      : No

x264

raw [info]: 956x400p 1:1 @ 24000/1001 fps (cfr)
x264 [info]: using SAR=1/1
x264 [info]: using cpu capabilities: MMX2 SSE2Fast SSSE3 SSE4.2
x264 [info]: profile High, level 4.1
x264 [info]: cabac=1 ref=14 deblock=1:-1:-1 analyse=0x3:0x113 me=umh subme=10 psy=1 fade_compensate=0.00 psy_rd=1.00:0.00 mixed_ref=1 me_range=32 chroma_me=1 trellis=2 8x8dct=1 cqm=0 deadzone=21,11 fast_pskip=0 chroma_qp_offset=-2 threads=12 lookahead_threads=3 sliced_threads=0 nr=0 decimate=0 interlaced=0 bluray_compat=0 constrained_intra=0 bframes=14 b_pyramid=2 b_adapt=2 b_bias=0 direct=1 weightb=1 open_gop=0 weightp=2 keyint=240 keyint_min=23 scenecut=40 intra_refresh=0 rc_lookahead=60 rc=2pass mbtree=0 bitrate=1355 ratetol=1.0 qcomp=0.60 qpmin=0 qpmax=69 qpstep=4 cplxblur=20.0 qblur=0.5 vbv_maxrate=50000 vbv_bufsize=62500 nal_hrd=none filler=0 ip_ratio=1.40 pb_ratio=1.30 aq=1:1.00
frames     fps     kb/s    elapsed   remain     size    est.size
x264 [info]: frame I:1779  Avg QP:16.23  size: 54344
x264 [info]: frame P:50231 Avg QP:20.51  size: 14287
x264 [info]: frame B:141552 Avg QP:22.35  size:  3907
x264 [info]: consecutive B-frames:  4.8%  5.2% 12.4% 25.5% 16.7% 27.0%  4.7%  1.2%  1.1%  0.6%  0.4%  0.0%  0.1%  0.0%  0.1%
x264 [info]: mb I  I16..4:  4.1% 74.3% 21.6%
x264 [info]: mb P  I16..4:  1.3% 10.3%  2.0%  P16..4: 41.4% 25.8% 13.6%  0.0%  0.0%    skip: 5.7%
x264 [info]: mb B  I16..4:  0.1%  0.9%  0.2%  B16..8: 38.5% 10.0%  2.6%  direct: 3.8%  skip:43.9%  L0:40.5% L1:46.3% BI:13.2%
x264 [info]: 8x8 transform intra:75.4% inter:60.7%
x264 [info]: coded y,uvDC,uvAC intra: 83.3% 73.4% 43.1% inter: 17.9% 12.4% 5.2%
x264 [info]: i16 v,h,dc,p: 19% 17%  7% 57%
x264 [info]: i8 v,h,dc,ddl,ddr,vr,hd,vl,hu:  9% 10%  5%  9% 14% 13% 15% 11% 14%
x264 [info]: i4 v,h,dc,ddl,ddr,vr,hd,vl,hu:  9%  9%  3%  9% 15% 14% 15% 11% 14%
x264 [info]: i8c dc,h,v,p: 38% 28% 19% 16%
x264 [info]: Weighted P-Frames: Y:3.4% UV:1.5%
x264 [info]: ref P L0: 55.4% 12.2% 12.5%  5.1%  3.5%  2.6%  2.1%  1.8%  1.2%  0.9%  0.7%  0.6%  0.6%  0.6%  0.1%  0.0%
x264 [info]: ref B L0: 79.3%  8.5%  3.9%  2.3%  1.4%  1.0%  0.8%  1.3%  0.7%  0.3%  0.3%  0.2%  0.1%
x264 [info]: ref B L1: 95.7%  4.3%
x264 [info]: kb/s:1355.02

Скриншоты

Пример субтитров

923
01:10:45,532 --> 01:10:47,751
- Звуковые стабилизаторы.
- Звуковые что?
924
01:10:48,118 --> 01:10:49,415
В чистом виде...
925
01:10:49,578 --> 01:10:51,205
вибраниум слишком опасно
926
01:10:51,288 --> 01:10:53,040
перевозить на такой скорости...
927
01:10:53,206 --> 01:10:56,301
И я разработала способ
временно его деактивировать.
[Профиль]    [ЛС]
Показать сообщения:    
Ответить на тему

Текущее время: Сегодня 12:17

Часовой пояс: GMT + 7



Вы не можете начинать темы
Вы не можете отвечать на сообщения
Вы не можете редактировать свои сообщения
Вы не можете удалять свои сообщения
Вы не можете голосовать в опросах
Вы не можете прикреплять файлы к сообщениям
Вы не можете скачивать файлы