Чёрная Пантера / Black Panther (Райан Куглер / Ryan Coogler) [2018, США, фантастика, боевик, приключения, BDRip-AVC] Dub + Original + Sub (rus, eng)

Ответить на тему
 
Автор Сообщение

torrentc.info

Создавать темы 11-Май-2018 17:01

[Цитировать]

Чёрная Пантера / Black Panther«Да здравствует король»- Страна: США
Жанр: фантастика, боевик, приключения
Год выхода: 2018
Продолжительность: 02:14:33
Перевод: Профессиональный (дублированный) (iTunes)
Оригинальная аудиодорожка: английский
Субтитры: русские (форс., полные) английские (полные, SDH)
Режиссер: Райан Куглер / Ryan Coogler
В ролях: Чедвик Боузман (T'Challa / Black Panther), Майкл Б. Джордан (Erik Killmonger), Лупита Нионго (Nakia), Данай Джекесай Гурира (Okoye), Мартин Фриман (Everett K. Ross), Дэниэл Калуя (W'Kabi), Летишиа Райт (Shuri), Уинстон Дьюк (M'Baku), Стерлинг К. Браун (N'Jobu), Анджела Бассетт (Ramonda), Форест Уитакер (Zuri), Энди Серкис (Ulysses Klaue)
Описание: С первого взгляда можно решить, что Ваканда - обычная территория дикой Африки, но это не так. Здесь, в недрах пустынных земель, скрываются залежи уникального металла, способного поглощать вибрацию. Многие пытались добраться до него, разоряя всё на своём пути и принося смерть аборигенам, но каждый раз таинственный дух саванны - Чёрная Пантера - вставал на защиту угнетённых.- [img]https://rating.kinopoisk.ru/623250.gif[/img]-Качество: BDRip-AVC (Источник: Torrentc - Black.Panther.2018.REMUX.BluRay.1080p.AVC.DTS-HD.MA7.1-iFT)
Формат файла: MKV
Видео: x264, 1152x482 (2.40:1) 23,976 fps, ~2173 kbps, 0.163 bit/pixel
Аудио 1: 48 kHz, AC3 Dolby Digital, 3/2 (L,C,R,l,r) + LFE ch, ~384 kbps [русский]
Аудио 2: 48 kHz, AC3 Dolby Digital, 3/2 (L,C,R,l,r) + LFE ch, ~448 kbps [английский]
Формат файла субтитров: softsub (SRT)-

MediaInfo | x264 log

Format : Matroska
Format version : Version 4 / Version 2
File size : 2.89 GiB
Duration : 2 h 14 min
Overall bit rate : 3 066 kb/s
Movie name : Чёрная Пантера / Black Panther (2018) :: AFM ::
Encoded date : UTC 2018-05-10 20:35:02
Writing application : mkvmerge v8.3.0 ('Over the Horizon') 32bit
Writing library : libebml v1.3.1 + libmatroska v1.4.2
Cover : Yes
Attachments : cover.jpg
Video
ID : 1
Format : AVC
Format/Info : Advanced Video Codec
Format profile : High@L4.1
Format settings, CABAC : Yes
Format settings, RefFrames : 12 frames
Codec ID : V_MPEG4/ISO/AVC
Duration : 2 h 14 min
Bit rate : 2 173 kb/s
Width : 1 152 pixels
Height : 482 pixels
Display aspect ratio : 2.40:1
Frame rate mode : Constant
Frame rate : 23.976 (24000/1001) FPS
Color space : YUV
Chroma subsampling : 4:2:0
Bit depth : 8 bits
Scan type : Progressive
Bits/(Pixel*Frame) : 0.163
Stream size : 2.05 GiB (71%)
Title : BDRip by AFM
Writing library : x264 core 155 r2867+82 a249126 t_mod_Custom_2 [8-bit@all X86_64]
Encoding settings : cabac=1 / ref=12 / deblock=1:-2:-2 / analyse=0x3:0x133 / me=umh / subme=10 / psy=1 / fade_compensate=0.00 / psy_rd=1.00:0.00 / mixed_ref=1 / me_range=32 / chroma_me=0 / trellis=2 / 8x8dct=1 / cqm=0 / deadzone=21,11 / fast_pskip=0 / chroma_qp_offset=-2 / threads=6 / lookahead_threads=1 / sliced_threads=0 / nr=0 / decimate=1 / interlaced=0 / bluray_compat=0 / constrained_intra=0 / fgo=0 / bframes=14 / b_pyramid=2 / b_adapt=2 / b_bias=0 / direct=1 / weightb=1 / open_gop=0 / weightp=2 / keyint=240 / keyint_min=23 / scenecut=40 / intra_refresh=0 / rc_lookahead=90 / rc=crf / mbtree=0 / crf=18.4000 / qcomp=0.65 / qpmin=0:0:0 / qpmax=69:69:69 / qpstep=4 / vbv_maxrate=50000 / vbv_bufsize=62500 / crf_max=0.0 / nal_hrd=none / filler=0 / ip_ratio=1.35 / pb_ratio=1.25 / aq=3:0.80 / aq-sensitivity=10.00 / aq-factor=1.00:1.00:1.00 / aq2=0 / aq3=0
Language : English
Default : Yes
Forced : No
Audio #1
ID : 2
Format : AC-3
Format/Info : Audio Coding 3
Format settings, Endianness : Big
Codec ID : A_AC3
Duration : 2 h 14 min
Bit rate mode : Constant
Bit rate : 384 kb/s
Channel(s) : 6 channels
Channel positions : Front: L C R, Side: L R, LFE
Sampling rate : 48.0 kHz
Frame rate : 31.250 FPS (1536 SPF)
Bit depth : 16 bits
Compression mode : Lossy
Stream size : 370 MiB (13%)
Title : Dub, AC3 5.1 ~384 kbps
Language : Russian
Service kind : Complete Main
Default : No
Forced : No
Audio #2
ID : 3
Format : AC-3
Format/Info : Audio Coding 3
Format settings, Endianness : Big
Codec ID : A_AC3
Duration : 2 h 14 min
Bit rate mode : Constant
Bit rate : 448 kb/s
Channel(s) : 6 channels
Channel positions : Front: L C R, Side: L R, LFE
Sampling rate : 48.0 kHz
Frame rate : 31.250 FPS (1536 SPF)
Bit depth : 16 bits
Compression mode : Lossy
Stream size : 432 MiB (15%)
Title : Original, AC3 5.1 ~448 kbps
Language : English
Service kind : Complete Main
Default : No
Forced : No
Text #1
ID : 4
Format : UTF-8
Codec ID : S_TEXT/UTF8
Codec ID/Info : UTF-8 Plain Text
Title : forced
Language : Russian
Default : Yes
Forced : No
Text #2
ID : 5
Format : UTF-8
Codec ID : S_TEXT/UTF8
Codec ID/Info : UTF-8 Plain Text
Language : Russian
Default : No
Forced : No
Text #3
ID : 6
Format : UTF-8
Codec ID : S_TEXT/UTF8
Codec ID/Info : UTF-8 Plain Text
Language : English
Default : No
Forced : No
Text #4
ID : 7
Format : UTF-8
Codec ID : S_TEXT/UTF8
Codec ID/Info : UTF-8 Plain Text
Title : SDH
Language : English
Default : No
Forced : No
Menu
00:00:00.000 : en:00:00:00.000
00:06:56.291 : en:00:06:56.291
00:12:02.805 : en:00:12:02.805
00:19:12.360 : en:00:19:12.360
00:28:32.961 : en:00:28:32.961
00:33:11.698 : en:00:33:11.698
00:40:57.497 : en:00:40:57.497
00:48:34.036 : en:00:48:34.036
00:53:46.098 : en:00:53:46.098
01:01:57.339 : en:01:01:57.339
01:08:33.026 : en:01:08:33.026
01:16:46.769 : en:01:16:46.769
01:22:24.022 : en:01:22:24.022
01:31:21.434 : en:01:31:21.434
01:41:15.361 : en:01:41:15.361
01:50:56.483 : en:01:50:56.483
01:59:16.941 : en:01:59:16.941
02:02:43.648 : en:02:02:43.648

x264

x264 [info]: frame I:1792 Avg QP:16.60 size: 67746
x264 [info]: frame P:44125 Avg QP:18.35 size: 23887
x264 [info]: frame B:147644 Avg QP:21.07 size: 7319
x264 [info]: consecutive B-frames: 2.7% 3.0% 10.2% 24.3% 18.8% 29.1% 4.8% 1.1% 1.0% 3.8% 0.4% 0.2% 0.2% 0.1% 0.2%
x264 [info]: mb I I16..4: 5.3% 74.4% 20.2%
x264 [info]: mb P I16..4: 1.6% 13.8% 3.0% P16..4: 39.9% 20.4% 14.0% 0.8% 0.3% skip: 6.2%
x264 [info]: mb B I16..4: 0.1% 1.3% 0.5% B16..8: 37.5% 10.2% 2.4% direct: 4.6% skip:43.3% L0:41.2% L1:44.6% BI:14.3%
x264 [info]: 8x8 transform intra:73.3% inter:67.2%
x264 [info]: coded y,uvDC,uvAC intra: 80.6% 81.8% 56.1% inter: 18.6% 16.3% 3.8%
x264 [info]: i16 v,h,dc,p: 29% 15% 7% 49%
x264 [info]: i8 v,h,dc,ddl,ddr,vr,hd,vl,hu: 16% 10% 6% 8% 12% 12% 13% 11% 13%
x264 [info]: i4 v,h,dc,ddl,ddr,vr,hd,vl,hu: 23% 7% 4% 8% 13% 12% 13% 10% 12%
x264 [info]: i8c dc,h,v,p: 36% 27% 21% 16%
x264 [info]: Weighted P-Frames: Y:3.9% UV:2.4%
x264 [info]: ref P L0: 52.7% 11.8% 14.6% 5.5% 4.1% 3.0% 2.6% 1.4% 1.3% 1.1% 1.0% 1.0% 0.1% 0.0%
x264 [info]: ref B L0: 79.2% 9.3% 4.4% 2.0% 1.5% 1.1% 0.9% 0.6% 0.5% 0.3% 0.2%
x264 [info]: ref B L1: 95.0% 5.0%
x264 [info]: kb/s:2235.56

Скриншотыс названием

[Профиль]    [ЛС]
Показать сообщения:    
Ответить на тему

Текущее время: Сегодня 12:08

Часовой пояс: GMT + 7



Вы не можете начинать темы
Вы не можете отвечать на сообщения
Вы не можете редактировать свои сообщения
Вы не можете удалять свои сообщения
Вы не можете голосовать в опросах
Вы не можете прикреплять файлы к сообщениям
Вы не можете скачивать файлы