Стрелок левша / Пистолет в левой руке / The Left Handed Gun (Артур Пенн / Arthur Penn) [1958, США, вестерн, драма, WEB-DLRip] AVO (Карцев) + Sub Eng + Original Eng

Ответить на тему
Статистика раздачи [Обновить пиров]
Размер:  1.46 GB   |    Зарегистрирован:  5 месяцев 7 дней   |    Скачан:  0 раз

Полного источника не было: Никогда

 
   
 
 
 
Автор Сообщение

torrentc.info

Создавать темы 10-Май-2018 10:38

[Цитировать]

Стрелок левша / Пистолет в левой руке / The Left Handed Gun
Страна: США
Жанр: вестерн, драма
Год выхода: 1958
Продолжительность: 01:42:20
Перевод: Авторский (одноголосый закадровый) - Пётр Карцев
Субтитры: английские
Оригинальная аудиодорожка: английский

Режиссер: Артур Пенн / Arthur Penn
В ролях: Пол Ньюман, Лита Милан, Джон Денер, Херд Хэтфилд, Джеймс Конгдон, Джеймс Бест, Колин Кит-Джонстон, Джон Диркес, Роберт Андерсон, Уолли Браун
Описание: Картина посвящена жизни Билли Кида, легендарного убийцы с Дикого Запада. Единственный плюс Билла — умение метко стрелять. Он был яростно верен и предан своим немногим друзьям и смертельно опасен для всех, кто становился его врагом. Этот парень был взят на работу английским фермером Джоном Танстеллом. Богатый, обладающий хорошими связями владелец ранчо Мерфи конкурент Танстелла, вместе со своими подельниками убивает англичанина. Молодые работники Танстелла пытаются добиться справедливости законным путем, но у них не получается. Тогда они начинают истреблять врагов одного за другим. А Билли Кид становится вожаком банды.
Сэмпл
Качество видео: WEB-DLRip
Формат файла: AVI
Видео: 720x400 (1.80:1), 23.976 fps, XviD build 73 ~1643 kbps avg, 0.24 bit/pixel
Аудио: 48 kHz, AC3 Dolby Digital, 2/0 (L,R) ch, ~192 kbps - авторский
Аудио: 48 kHz, AC3 Dolby Digital, 2/0 (L,R) ch, ~192 kbps - оригинал

Источник: Torrentc

http://Torrentc/forum/viewtopic.php?t=348661 - Карцев

MediaInfo

GeneralComplete name : H:\The.Left.Handed.Gun.1958.web-dlrip_[1.46]_[teko]\The.Left.Handed.Gun.1958.web-dlrip_[1.46].aviFormat : AVIFormat/Info : Audio Video InterleaveFile size : 1.46 GiBDuration : 1h 42mnOverall bit rate : 2 042 KbpsWriting application : VirtualDubMod 1.5.10.3 | www.virtualdub-fr.org || (build 2550/release)Writing library : VirtualDubMod build 2550/release
VideoID : 0Format : MPEG-4 VisualFormat profile : Advanced Simple@L5Format settings, BVOP : 2Format settings, QPel : NoFormat settings, GMC : No warppointsFormat settings, Matrix : CustomCodec ID : XVIDCodec ID/Hint : XviDDuration : 1h 42mnBit rate : 1 644 KbpsWidth : 720 pixelsHeight : 400 pixelsDisplay aspect ratio : 16:9Frame rate : 23.976 (23976/1000) fpsColor space : YUVChroma subsampling : 4:2:0Bit depth : 8 bitsScan type : ProgressiveCompression mode : LossyBits/(Pixel*Frame) : 0.238Stream size : 1.18 GiB (80%)Writing library : XviD 73
Audio #1ID : 1Format : AC-3Format/Info : Audio Coding 3Mode extension : CM (complete main)Format settings, Endianness : BigCodec ID : 2000Duration : 1h 42mnBit rate mode : ConstantBit rate : 192 KbpsChannel(s) : 2 channelsChannel positions : Front: L RSampling rate : 48.0 KHzFrame rate : 31.250 fps (1536 spf)Compression mode : LossyStream size : 141 MiB (9%)Alignment : Split accross interleavesInterleave, duration : 42 ms (1.00 video frame)Interleave, preload duratio : 500 ms
Audio #2ID : 2Format : AC-3Format/Info : Audio Coding 3Mode extension : CM (complete main)Format settings, Endianness : BigCodec ID : 2000Duration : 1h 42mnBit rate mode : ConstantBit rate : 192 KbpsChannel(s) : 2 channelsChannel positions : Front: L RSampling rate : 48.0 KHzFrame rate : 31.250 fps (1536 spf)Compression mode : LossyStream size : 141 MiB (9%)Alignment : Split accross interleavesInterleave, duration : 42 ms (1.00 video frame)Interleave, preload duratio : 500 ms
:--


[torrentc.info]_t_5559158.torrent
Торрент: Зарегистрирован ·  [ 2018-05-10 10:38 ] ·  ef668c4354716218da573ca40262f767d4dbab2c

15 KB

Статус: проверено
Скачан: 0 раз
Размер: 1.46 GB
Оценка: 
(Голосов: 0)
Сказали спасибо: 0  Спасибо
Похожие темы
[Профиль]    [ЛС]
Показать сообщения:    
Ответить на тему

Текущее время: Сегодня 01:20

Часовой пояс: GMT + 7



Вы не можете начинать темы
Вы не можете отвечать на сообщения
Вы не можете редактировать свои сообщения
Вы не можете удалять свои сообщения
Вы не можете голосовать в опросах
Вы не можете прикреплять файлы к сообщениям
Вы можете скачивать файлы