Анон / Anon (Эндрю Никкол / Andrew Niccol) [2018, США, фантастика, триллер, WEB-DLRip] MVO + Sub

Ответить на тему
 
Автор Сообщение

torrentc.info

Создавать темы 09-Май-2018 01:03

[Цитировать]

Анон / Anon
«Аноним - враг системы»
- Год выхода: 2018
Выпущено: Германия, США / K5 Media Group
Жанр: фантастика, триллер
Продолжительность: 01:40:10
Перевод: Любительский (многоголосый, закадровый) AlphaProject
Субтитры: Русские (форсированные) (внешние .srt*)-Режиссер:
Эндрю Никкол / Andrew Niccol-В ролях:
Клайв Оуэн (Sal Frieland), Аманда Сайфред (Anon), Колм Фиор (Charles Gattis), Джо Пинг (Lester Hagen), Марк О’Брайэн (Cyrus Frear), Иддо Голдберг (Josef Kenik), Конрад Коутс (Detective Fuchs), Мэйко Нгуйен (Detective Dyer), Соня Уолгер (Kristen), Элисон Бэт (Krystal), Сара Митич (Shirley)-О фильме:
Идеальное общество будущего: режим тотального надзора, отсутствие личной жизни, приватных территорий и гражданских прав. Казалось бы, в полностью контролируемом государстве нет места ошибкам и правонарушениям. Но однажды детектив Сол Фриленд знакомится с девушкой, которая не числится в базах данных. Перед копом приоткрывается дверь преступного мира новой эры…-
| | IMDB | КиноПоиск | Сэмпл |-Качество: WEB-DLRip [Anon 2018 1080p NF WEB-DL DD5.1 x264-STRiFE]
Формат файла: AVI
Видео: 704x400 (1.76:1), 24.000 fps, XviD build 67 ~1697 kbps avg, 0.25 bit/pixel
Аудио: 48 kHz, AC3 Dolby Digital, 3/2 (L,C,R,l,r) + LFE ch, ~384.00 kbps avg-
- MediaInfo">

Скриншоты - MediaInfo

Общее
Полное имя                               : D:\Anon_2018_WEB-DLRip_MVO_by_Dalemake.avi
Формат файла                                   : AVI
Формат файла/Информация                        : Audio Video Interleave
Размер файла                             : 1,46 Гбайт
Продолжительность                        : 1 ч. 40 м.
Общий поток                              : 2091 Кбит/сек
Программа кодирования                    : VirtualDubMod 1.5.10.3 | www.virtualdub-fr.org || (build 2550/release)
Библиотека кодирования                   : VirtualDubMod build 2550/release
Видео
Идентификатор                            : 0
Формат файла                                   : MPEG-4 Visual
Профиль формата                          : Advanced Simple@L5
Параметр BVOP формата                    : 1
Параметр QPel формата                    : Нет
Параметр GMC формата                     : Без точки перехода
Параметр матрицы формата                 : Выборочная
Идентификатор кодека                     : XVID
Идентификатор кодека/Подсказка           : XviD
Продолжительность                        : 1 ч. 40 м.
Битрейт                                  : 1698 Кбит/сек
Ширина                                   : 704 пикселя
Высота                                   : 400 пикселей
Соотношение сторон                       : 16:9
Частота кадров                           : 24,000 кадра/сек
Цветовое пространство                    : YUV
Субдискретизация насыщенности            : 4:2:0
Битовая глубина                          : 8 бит
Тип развёртки                            : Прогрессивная
Метод сжатия                             : С потерями
Бит/(Пиксели*Кадры)                      : 0.251
Размер потока                            : 1,19 Гбайт (81%)
Библиотека кодирования                   : XviD 67
Аудио
Идентификатор                            : 1
Формат файла                                   : AC-3
Формат файла/Информация                        : Audio Coding 3
Расширение режима                        : CM (complete main)
Параметр Endianness формата              : Big
Идентификатор кодека                     : 2000
Продолжительность                        : 1 ч. 40 м.
Вид битрейта                             : Постоянный
Битрейт                                  : 384 Кбит/сек
Каналы                                   : 6 каналов
Расположение каналов                     : Front: L C R, Side: L R, LFE
Частота                                  : 48,0 КГц
Битовая глубина                          : 16 бит
Метод сжатия                             : С потерями
Размер потока                            : 275 Мбайт (18%)
Выравнивание                             : Разделение по промежуткам
Продолжительность промежутка             : 42  мс. (1,00 видеокадр)
Время предзагрузки промежутка            : 500  мс.

Доп. Информация

За работу с дорожкой и субтитрами спасибо - Ash61
-При появлении проф. перевода рип будет перезалит!-
[Профиль]    [ЛС]
Показать сообщения:    
Ответить на тему

Текущее время: Сегодня 12:12

Часовой пояс: GMT + 7



Вы не можете начинать темы
Вы не можете отвечать на сообщения
Вы не можете редактировать свои сообщения
Вы не можете удалять свои сообщения
Вы не можете голосовать в опросах
Вы не можете прикреплять файлы к сообщениям
Вы не можете скачивать файлы