(Experimental, Noise Rock, Abstract, Industrial, Avantgarde) [CD, WEB] Neptune - 4 Альбома [2004-2012] FLAC (tracks+.cue, tracks), lossless

Ответить на тему
Статистика раздачи [Обновить пиров]
Размер:  844 MB   |    Зарегистрирован:  6 месяцев 11 дней   |    Скачан:  0 раз

Полного источника не было: Никогда

 
   
 
 
 
Автор Сообщение

torrentc.info

Создавать темы 08-Май-2018 03:20

[Цитировать]

Neptune / 4 Альбома

Жанр: Experimental, Noise Rock, Abstract, Industrial, Avantgarde
Носитель: CD, WEB
Страна-производитель диска (релиза): US
Год издания: 2004-2012
Издатель (лейбл): Mister Records, Radium, Northern Spy
Страна исполнителя (группы): Boston, Massachusetts, US
Аудиокодек: FLAC (*.flac)
Тип рипа: tracks+.cue, tracks
Битрейт аудио: lossless
Продолжительность: 02:29:30.
Источник (релизер): Red, henkdevries, femalecop, jackie_treehorn
Наличие сканов в содержимом раздачи: да
--

2004 - Intimate Lightning

Label: Mister Records
Catalog#: MR 15.5
Продолжительность: 00:36:59
Трэклист:
01. Tiny Conductor 3:36
02. Misty 3:08
03. Silver Planets 3:40
04. A Little Spider 4:20
05. At The Pink Pony 3:39
06. Automatic 2:58
07. In This Hemisphere 5:05
08. A Car Is A Weapon 2:22
09. Jeremy Bentham 2:27
10. The Gilded Bomb 5:47-

Лог создания рипа

Exact Audio Copy V1.3 from 2. September 2016
EAC extraction logfile from 17. December 2017, 0:45
Neptune / Intimate Lighting
Used drive : HL-DT-STDVDRAM GT30N Adapter: 1 ID: 0
Read mode : SecureUtilize accurate stream : YesDefeat audio cache : YesMake use of C2 pointers : No
Read offset correction : 103Overread into Lead-In and Lead-Out : NoFill up missing offset samples with silence : YesDelete leading and trailing silent blocks : NoNull samples used in CRC calculations : YesUsed interface : Installed external ASPI interfaceGap handling : Appended to previous track
Used output format : User Defined EncoderSelected bitrate : 896 kBit/sQuality : HighAdd ID3 tag : NoCommand line compressor : C:\Program Files (x86)\Exact Audio Copy\Flac\flac.exeAdditional command line options : -8 -e -p -V -T "ARTIST=%artist%" -T "TITLE=%title%" -T "ALBUM=%albumtitle%" -T "DATE=%year%" -T "TRACKNUMBER=%tracknr%" -T "GENRE=%genre%" -T "PERFORMER=%albuminterpret%" -T "COMPOSER=%composer%" %haslyrics%--tag-from-file=LYRICS="%lyricsfile%"%haslyrics% -T "ALBUMARTIST=%albumartist%" -T "DISCNUMBER=%cdnumber%" -T "TOTALDISCS=%totalcds%" -T "TOTALTRACKS=%numtracks%" -T "COMMENT=%comment%" %source% -o %dest%
TOC of the extracted CD
Track | Start | Length | Start sector | End sector --------------------------------------------------------- 1 | 0:00.00 | 3:35.44 | 0 | 16168 2 | 3:35.44 | 3:07.31 | 16169 | 30224 3 | 6:43.00 | 3:39.45 | 30225 | 46694 4 | 10:22.45 | 4:19.32 | 46695 | 66151 5 | 14:42.02 | 3:39.05 | 66152 | 82581 6 | 18:21.07 | 2:57.55 | 82582 | 95911 7 | 21:18.62 | 5:05.06 | 95912 | 118792 8 | 26:23.68 | 2:21.57 | 118793 | 129424 9 | 28:45.50 | 2:26.40 | 129425 | 140414 10 | 31:12.15 | 5:46.68 | 140415 | 166432
Track 1
Filename Z:\music\01 - Tiny Conductor.wav
Pre-gap length 0:00:02.00
Peak level 98.2 % Extraction speed 1.2 X Track quality 100.0 % Test CRC 131D97A8 Copy CRC 131D97A8 Accurately ripped (confidence 1) [141063C2] (AR v1) Copy OK
Track 2
Filename Z:\music\02 - Misty.wav
Pre-gap length 0:00:01.00
Peak level 98.6 % Extraction speed 1.3 X Track quality 100.0 % Test CRC 54454CE3 Copy CRC 54454CE3 Accurately ripped (confidence 1) [99E694BB] (AR v1) Copy OK
Track 3
Filename Z:\music\03 - Silver Planets.wav
Pre-gap length 0:00:01.44
Peak level 97.9 % Extraction speed 1.5 X Track quality 100.0 % Test CRC 6145C639 Copy CRC 6145C639 Accurately ripped (confidence 1) [EF256C0A] (AR v1) Copy OK
Track 4
Filename Z:\music\04 - A Little Spider.wav
Pre-gap length 0:00:01.00
Peak level 98.4 % Extraction speed 1.6 X Track quality 100.0 % Test CRC E7B735C7 Copy CRC E7B735C7 Accurately ripped (confidence 1) [58CC7686] (AR v1) Copy OK
Track 5
Filename Z:\music\05 - At The Pink Pony.wav
Pre-gap length 0:00:01.00
Peak level 98.1 % Extraction speed 1.7 X Track quality 100.0 % Test CRC 4844B82D Copy CRC 4844B82D Accurately ripped (confidence 1) [111F5FEF] (AR v1) Copy OK
Track 6
Filename Z:\music\06 - Automatic.wav
Peak level 98.3 % Extraction speed 1.7 X Track quality 100.0 % Test CRC 7BD10D72 Copy CRC 7BD10D72 Accurately ripped (confidence 1) [B9B24B15] (AR v1) Copy OK
Track 7
Filename Z:\music\07 - In This Hemisphere.wav
Pre-gap length 0:00:01.00
Peak level 98.5 % Extraction speed 1.8 X Track quality 99.9 % Test CRC A276DA73 Copy CRC A276DA73 Accurately ripped (confidence 1) [3F4E9DFB] (AR v1) Copy OK
Track 8
Filename Z:\music\08 - A Car Is A Weapon.wav
Pre-gap length 0:00:02.00
Peak level 97.7 % Extraction speed 1.5 X Track quality 99.9 % Test CRC 6BD0C2C4 Copy CRC 6BD0C2C4 Accurately ripped (confidence 1) [3FC18268] (AR v1) Copy OK
Track 9
Filename Z:\music\09 - Jeremy Bentham.wav
Peak level 97.9 % Extraction speed 1.9 X Track quality 100.0 % Test CRC 96F0A944 Copy CRC 96F0A944 Accurately ripped (confidence 1) [DBEA26D0] (AR v1) Copy OK
Track 10
Filename Z:\music\10 - The Gilded Bomb.wav
Pre-gap length 0:00:01.00
Peak level 97.8 % Extraction speed 2.1 X Track quality 99.9 % Test CRC 7604F3F2 Copy CRC 7604F3F2 Accurately ripped (confidence 1) [7A7EEE81] (AR v1) Copy OK
All tracks accurately ripped
No errors occurred
End of status report
==== Log checksum AA0212EEB3CA5FDF5142136FA7964544BA887C6C75D2F3D3C5F53312A6C33C03 ====

Содержание индексной карты (.CUE)

REM GENRE AvantgardeREM DATE 2004REM DISCID 7D08AB0AREM COMMENT "ExactAudioCopy v1.3"PERFORMER "Neptune"TITLE "Intimate Lighting"REM COMPOSER ""FILE "01 - Tiny Conductor.wav" WAVE TRACK 01 AUDIO TITLE "Tiny Conductor" PERFORMER "Neptune" REM COMPOSER "" INDEX 01 00:00:00 TRACK 02 AUDIO TITLE "Misty" PERFORMER "Neptune" REM COMPOSER "" INDEX 00 03:34:44FILE "02 - Misty.wav" WAVE INDEX 01 00:00:00 TRACK 03 AUDIO TITLE "Silver Planets" PERFORMER "Neptune" REM COMPOSER "" INDEX 00 03:05:73FILE "03 - Silver Planets.wav" WAVE INDEX 01 00:00:00 TRACK 04 AUDIO TITLE "A Little Spider" PERFORMER "Neptune" REM COMPOSER "" INDEX 00 03:38:45FILE "04 - A Little Spider.wav" WAVE INDEX 01 00:00:00 TRACK 05 AUDIO TITLE "At The Pink Pony" PERFORMER "Neptune" REM COMPOSER "" FLAGS PRE INDEX 00 04:18:32FILE "05 - At The Pink Pony.wav" WAVE INDEX 01 00:00:00FILE "06 - Automatic.wav" WAVE TRACK 06 AUDIO TITLE "Automatic" PERFORMER "Neptune" REM COMPOSER "" INDEX 01 00:00:00 TRACK 07 AUDIO TITLE "In This Hemisphere" PERFORMER "Neptune" REM COMPOSER "" INDEX 00 02:56:55FILE "07 - In This Hemisphere.wav" WAVE INDEX 01 00:00:00 TRACK 08 AUDIO TITLE "A Car Is A Weapon" PERFORMER "Neptune" REM COMPOSER "" INDEX 00 05:03:06FILE "08 - A Car Is A Weapon.wav" WAVE INDEX 01 00:00:00FILE "09 - Jeremy Bentham.wav" WAVE TRACK 09 AUDIO TITLE "Jeremy Bentham" PERFORMER "Neptune" REM COMPOSER "" INDEX 01 00:00:00 TRACK 10 AUDIO TITLE "The Gilded Bomb" PERFORMER "Neptune" REM COMPOSER "" INDEX 00 02:25:40FILE "10 - The Gilded Bomb.wav" WAVE INDEX 01 00:00:00

Лог проверки качества

fooCDtect - foobar2000 + auCDtect, baralgin.
auCDtect: CD records authenticity detector, version 0.8.2Copyright (c) 2004 Oleg Berngardt. All rights reserved.Copyright (c) 2004 Alexander Djourik. All rights reserved.
mode: 0
=========================================== Track: 01. Tiny Conductor Quality: CDDA 100%=========================================== Track: 02. Misty Quality: CDDA 100%=========================================== Track: 03. Silver Planets Quality: CDDA 100%=========================================== Track: 04. A Little Spider Quality: CDDA 100%=========================================== Track: 05. At The Pink Pony Quality: CDDA 100%=========================================== Track: 06. Automatic Quality: CDDA 100%=========================================== Track: 07. In This Hemisphere Quality: CDDA 100%=========================================== Track: 08. A Car Is A Weapon Quality: CDDA 100%=========================================== Track: 09. Jeremy Bentham Quality: CDDA 100%=========================================== Track: 10. The Gilded Bomb Quality: CDDA 100%===========================================

2008 - Gong Lake

Label: Radium
Catalog#: TOE-CD-811
Продолжительность: 00:34:55
Трэклист:
01. Silver Pool 1:32
02. Grey Shallows 4:24
03. Paris Green 3:49
04. Purple Sleep 4:14
05. Yellow River 4:17
06. Copper Green 2:38
07. Blue Glass 3:08
08. Black Tide 4:22
09. Red Sea 5:37
10. Ebbing 0:50-

Лог создания рипа

Exact Audio Copy V1.3 from 2. September 2016
EAC extraction logfile from 24. August 2017, 20:20
Neptune / Gong Lake
Used drive : ATAPI iHAS122 F Adapter: 1 ID: 0
Read mode : SecureUtilize accurate stream : YesDefeat audio cache : YesMake use of C2 pointers : No
Read offset correction : 6Overread into Lead-In and Lead-Out : NoFill up missing offset samples with silence : YesDelete leading and trailing silent blocks : NoNull samples used in CRC calculations : YesUsed interface : Native Win32 interface for Win NT & 2000Gap handling : Appended to previous track
Used output format : User Defined EncoderSelected bitrate : 1024 kBit/sQuality : HighAdd ID3 tag : NoCommand line compressor : C:\Program Files (x86)\Exact Audio Copy\Flac\flac.exeAdditional command line options : -8 -e -V -T "ARTIST=%artist%" -T "TITLE=%title%" -T "ALBUM=%albumtitle%" -T "DATE=%year%" -T "TRACKNUMBER=%tracknr%" -T "GENRE=%genre%" -T "PERFORMER=%albuminterpret%" -T "COMPOSER=%composer%" %haslyrics%--tag-from-file=LYRICS="%lyricsfile%"%haslyrics% -T "ALBUMARTIST=%albumartist%" -T "DISCNUMBER=%cdnumber%" -T "TOTALDISCS=%totalcds%" -T "TOTALTRACKS=%numtracks%" -T "COMMENT=%comment%" %source% -o %dest%
TOC of the extracted CD
Track | Start | Length | Start sector | End sector --------------------------------------------------------- 1 | 0:00.00 | 1:32.60 | 0 | 6959 2 | 1:32.60 | 4:24.41 | 6960 | 26800 3 | 5:57.26 | 3:49.41 | 26801 | 44016 4 | 9:46.67 | 4:14.52 | 44017 | 63118 5 | 14:01.44 | 4:17.11 | 63119 | 82404 6 | 18:18.55 | 2:38.13 | 82405 | 94267 7 | 20:56.68 | 3:08.19 | 94268 | 108386 8 | 24:05.12 | 4:22.46 | 108387 | 128082 9 | 28:27.58 | 5:36.70 | 128083 | 153352 10 | 34:04.53 | 0:50.29 | 153353 | 157131
Track 1
Filename D:\Rips\Neptune - Gong Lake (2008) [FLAC] {TOE-CD-811}\01 - Silver Pool.wav
Pre-gap length 0:00:02.00
Peak level 97.4 % Extraction speed 4.0 X Track quality 100.0 % Test CRC A95C510C Copy CRC A95C510C Accurately ripped (confidence 3) [46BAD59D] (AR v2) Copy OK
Track 2
Filename D:\Rips\Neptune - Gong Lake (2008) [FLAC] {TOE-CD-811}\02 - Grey Shallows.wav
Peak level 97.8 % Extraction speed 5.4 X Track quality 100.0 % Test CRC 18C91F08 Copy CRC 18C91F08 Accurately ripped (confidence 3) [72D292BE] (AR v2) Copy OK
Track 3
Filename D:\Rips\Neptune - Gong Lake (2008) [FLAC] {TOE-CD-811}\03 - Paris Green.wav
Peak level 97.8 % Extraction speed 5.8 X Track quality 100.0 % Test CRC 23CF51B7 Copy CRC 23CF51B7 Accurately ripped (confidence 3) [1594CE6E] (AR v2) Copy OK
Track 4
Filename D:\Rips\Neptune - Gong Lake (2008) [FLAC] {TOE-CD-811}\04 - Purple Sleep.wav
Peak level 97.9 % Extraction speed 6.4 X Track quality 100.0 % Test CRC ABCA1F3B Copy CRC ABCA1F3B Accurately ripped (confidence 3) [06742234] (AR v2) Copy OK
Track 5
Filename D:\Rips\Neptune - Gong Lake (2008) [FLAC] {TOE-CD-811}\05 - Yellow River.wav
Pre-gap length 0:00:01.34
Peak level 97.7 % Extraction speed 6.8 X Track quality 100.0 % Test CRC C79D262A Copy CRC C79D262A Accurately ripped (confidence 3) [2BABAF56] (AR v2) Copy OK
Track 6
Filename D:\Rips\Neptune - Gong Lake (2008) [FLAC] {TOE-CD-811}\06 - Copper Green.wav
Peak level 98.1 % Extraction speed 6.7 X Track quality 100.0 % Test CRC AD60B81B Copy CRC AD60B81B Accurately ripped (confidence 3) [9AD13F50] (AR v2) Copy OK
Track 7
Filename D:\Rips\Neptune - Gong Lake (2008) [FLAC] {TOE-CD-811}\07 - Blue Glass.wav
Peak level 98.1 % Extraction speed 5.7 X Track quality 99.9 % Test CRC 729A87EA Copy CRC 729A87EA Accurately ripped (confidence 3) [39C3B3A4] (AR v2) Copy OK
Track 8
Filename D:\Rips\Neptune - Gong Lake (2008) [FLAC] {TOE-CD-811}\08 - Black Tide.wav
Peak level 97.9 % Extraction speed 6.5 X Track quality 99.9 % Test CRC 7C3272E0 Copy CRC 7C3272E0 Accurately ripped (confidence 3) [9B8D105E] (AR v2) Copy OK
Track 9
Filename D:\Rips\Neptune - Gong Lake (2008) [FLAC] {TOE-CD-811}\09 - Red Sea.wav
Peak level 98.8 % Extraction speed 8.5 X Track quality 100.0 % Test CRC 70E89C5F Copy CRC 70E89C5F Accurately ripped (confidence 3) [42177061] (AR v2) Copy OK
Track 10
Filename D:\Rips\Neptune - Gong Lake (2008) [FLAC] {TOE-CD-811}\10 - Ebbing.wav
Pre-gap length 0:00:03.02
Peak level 59.6 % Extraction speed 5.4 X Track quality 100.0 % Test CRC 2C774BDA Copy CRC 2C774BDA Accurately ripped (confidence 3) [6AECEB51] (AR v2) Copy OK
All tracks accurately ripped
No errors occurred
End of status report
---- CUETools DB Plugin V2.1.6
[CTDB TOCID: AnQb8P3PYNPgminrfiB6b.uim5E-] foundSubmit result: AnQb8P3PYNPgminrfiB6b.uim5E- has been confirmedTrack | CTDB Status 1 | (4/4) Accurately ripped 2 | (4/4) Accurately ripped 3 | (4/4) Accurately ripped 4 | (4/4) Accurately ripped 5 | (4/4) Accurately ripped 6 | (4/4) Accurately ripped 7 | (4/4) Accurately ripped 8 | (4/4) Accurately ripped 9 | (4/4) Accurately ripped 10 | (4/4) Accurately ripped
==== Log checksum 4E3B7CB141A16CA2D3A45962F886A43247E89327D67B3A14774C815C2711D111 ====

Содержание индексной карты (.CUE)

REM GENRE AvantgardeREM DATE 2008REM DISCID 83082F0AREM COMMENT "ExactAudioCopy v1.3"PERFORMER "Neptune"TITLE "Gong Lake"REM COMPOSER ""FILE "01 - Silver Pool.wav" WAVE TRACK 01 AUDIO TITLE "Silver Pool" PERFORMER "Neptune" REM COMPOSER "" FLAGS DCP INDEX 01 00:00:00FILE "02 - Grey Shallows.wav" WAVE TRACK 02 AUDIO TITLE "Grey Shallows" PERFORMER "Neptune" REM COMPOSER "" FLAGS DCP INDEX 01 00:00:00FILE "03 - Paris Green.wav" WAVE TRACK 03 AUDIO TITLE "Paris Green" PERFORMER "Neptune" REM COMPOSER "" FLAGS DCP INDEX 01 00:00:00FILE "04 - Purple Sleep.wav" WAVE TRACK 04 AUDIO TITLE "Purple Sleep" PERFORMER "Neptune" REM COMPOSER "" FLAGS DCP INDEX 01 00:00:00 TRACK 05 AUDIO TITLE "Yellow River" PERFORMER "Neptune" REM COMPOSER "" FLAGS DCP INDEX 00 04:13:26FILE "05 - Yellow River.wav" WAVE INDEX 01 00:00:00FILE "06 - Copper Green.wav" WAVE TRACK 06 AUDIO TITLE "Copper Green" PERFORMER "Neptune" REM COMPOSER "" FLAGS DCP INDEX 01 00:00:00FILE "07 - Blue Glass.wav" WAVE TRACK 07 AUDIO TITLE "Blue Glass" PERFORMER "Neptune" REM COMPOSER "" FLAGS DCP INDEX 01 00:00:00FILE "08 - Black Tide.wav" WAVE TRACK 08 AUDIO TITLE "Black Tide" PERFORMER "Neptune" REM COMPOSER "" FLAGS DCP INDEX 01 00:00:00FILE "09 - Red Sea.wav" WAVE TRACK 09 AUDIO TITLE "Red Sea" PERFORMER "Neptune" REM COMPOSER "" FLAGS DCP INDEX 01 00:00:00 TRACK 10 AUDIO TITLE "Ebbing" PERFORMER "Neptune" REM COMPOSER "" FLAGS DCP INDEX 00 05:33:68FILE "10 - Ebbing.wav" WAVE INDEX 01 00:00:00

Лог проверки качества

fooCDtect - foobar2000 + auCDtect, baralgin.
auCDtect: CD records authenticity detector, version 0.8.2Copyright (c) 2004 Oleg Berngardt. All rights reserved.Copyright (c) 2004 Alexander Djourik. All rights reserved.
mode: 0
=========================================== Track: 01. Silver Pool Quality: CDDA 100%=========================================== Track: 02. Grey Shallows Quality: CDDA 99%=========================================== Track: 03. Paris Green Quality: CDDA 100%=========================================== Track: 04. Purple Sleep Quality: CDDA 100%=========================================== Track: 05. Yellow River Quality: CDDA 100%=========================================== Track: 06. Copper Green Quality: CDDA 100%=========================================== Track: 07. Blue Glass Quality: CDDA 100%=========================================== Track: 08. Black Tide Quality: CDDA 100%=========================================== Track: 09. Red Sea Quality: CDDA 100%=========================================== Track: 10. Ebbing Quality: CDDA 100%===========================================

2011 - Silent Partner

Label: Northern Spy
Catalog#: NSCD 013
Источник: Bandcamp
Продолжительность: 00:39:27
Трэклист:
1. #35 1:43
2. Cash Mattress 8:03
3. Triple Your Money 5:23
4. Canine Spaces 4:29
5. Collection Plate 7:02
6. #36 3:11
7. Rest From Breathing 7:43
8. #37 1:11-

Лог проверки качества

fooCDtect - foobar2000 + auCDtect, baralgin.
auCDtect: CD records authenticity detector, version 0.8.2Copyright (c) 2004 Oleg Berngardt. All rights reserved.Copyright (c) 2004 Alexander Djourik. All rights reserved.
mode: 0
=========================================== Track: 01. #35 Quality: CDDA 99%=========================================== Track: 02. Cash Mattress Quality: CDDA 99%=========================================== Track: 03. Triple Your Money Quality: CDDA 100%=========================================== Track: 04. Canine Species Quality: CDDA 100%=========================================== Track: 05. Collection Plate Quality: CDDA 99%=========================================== Track: 06. #36 Quality: CDDA 100%=========================================== Track: 07. Rest From Breathing Quality: CDDA 100%=========================================== Track: 08. #37 Quality: CDDA 100%===========================================

2012 - MSG RCVD

Label: Northern Spy Records
Catalog#: NSCD021
Источник: Bandcamp
Продолжительность: 00:38:08
Трэклист:
1. luminous skull 07:55
2. dark report 10:48
3. Neptune - rpr 02:35
4. natural systems 01:00
5. negative reversal 08:04
6. dstl sgnl 07:44-

Лог проверки качества

fooCDtect - foobar2000 + auCDtect, baralgin.
auCDtect: CD records authenticity detector, version 0.8.2Copyright (c) 2004 Oleg Berngardt. All rights reserved.Copyright (c) 2004 Alexander Djourik. All rights reserved.
mode: 0
=========================================== Track: 01. luminous skull Quality: CDDA 100%=========================================== Track: 02. dark report Quality: CDDA 100%=========================================== Track: 03. rpr Quality: CDDA 99%=========================================== Track: 04. natural systems Quality: CDDA 100%=========================================== Track: 05. negative reversal Quality: CDDA 100%=========================================== Track: 06. dstl sgnl Quality: CDDA 100%===========================================

Info

-Neptune is a noise music band from Boston that built all their custom made guitars and basses out of heaps of scrap metal. They also play on custom made percussion instruments and electric lamellophones.
Neptune's origins trace to 1994 as a sculpture project by Boston artist/musician Jason Sanford, who forged the band's haphazard guitars and reluctant drums from scrap steel and found objects. Seven lineups, twenty-three releases and hundreds of instruments later, the band continues to wrench its sound spatter on self-built instruments to often confounded audiences around the world. In 2007, they released Gong Lake with avant arbiter Table of the Elements, home to art heroes Tony Conrad, Rhys Chatham and Faust. Neptune has shared the stage with a variety of influential artists such as The Ex, Mission of Burma, Ut, Oneida, Lightning Bolt, The Flaming Lips, Blonde Redhead, Melt-Banana, Charles Hayward, Liars, Black Dice, James Chance & the Contortions, Gang Gang Dance, The Dresden Dolls, Six Finger Satellite, and Wolf Eyes. Sanford and longtime Neptune collaborator Mark Pearson are currently joined by musicians/instrument inventors Kevin Micka and Farhad Ebrahimi, redefining their music and creating new sounds from scratch. Propulsive percussion and sonorous electronics tangle with Sanford's microtonal string creations with a refined minimalism, adding a new chapter to the band's ever-evolving story.
Состав
Jason Sanford - baritone guitar, electric thumb piano, electronics, small electric spring, percussion, vocals
Mark Pearson - baritone guitar, electronics, large electric spring, drums, percussion, vocals
Farhad Ebrahimi - drums, percussion, electronics, vocals
Kevin Micka - drums, electronics, vocals


[torrentc.info]_t_5558675.torrent
Торрент: Зарегистрирован ·  [ 2018-05-08 03:20 ] ·  fcbd2be0d7284418845f60aee6cce5cedf94e42b

21 KB

Статус: проверено
Скачан: 0 раз
Размер: 844 MB
Оценка: 
(Голосов: 0)
Сказали спасибо: 0  Спасибо
Похожие темы
[Профиль]    [ЛС]
Показать сообщения:    
Ответить на тему

Текущее время: Сегодня 03:00

Часовой пояс: GMT + 7



Вы не можете начинать темы
Вы не можете отвечать на сообщения
Вы не можете редактировать свои сообщения
Вы не можете удалять свои сообщения
Вы не можете голосовать в опросах
Вы не можете прикреплять файлы к сообщениям
Вы можете скачивать файлы