Высокий блондин в черном ботинке / Le Grand blond avec une chaussure noire (Ив Робер / Yves Robert) [1972, Франция, комедия, BDRip] MVO (5 канал СПб) + MVO («Фильм-экспорт»)

Ответить на тему
Статистика раздачи [Обновить пиров]
Размер:  1.38 GB   |    Зарегистрирован:  5 месяцев 10 дней   |    Скачан:  0 раз

Полного источника не было: Никогда

 
   
 
 
 
Автор Сообщение

torrentc.info

Создавать темы 07-Май-2018 22:01

[Цитировать]

Высокий блондин в черном ботинке / Le Grand blond avec une chaussure noire
Страна: Франция
Жанр: Комедия
Год выхода: 1972
Продолжительность: 01:29:33
Перевод: Профессиональный (многоголосый закадровый) 5 канал СПб
Роли озвучивали: Михаил Черняк, Александра Кожевникова, Андрей Тенетко, Максим Сергеев
Перевод 2: Профессиональный (многоголосый закадровый) киностудия «Фильм-экспорт» по заказу ТРК "Останкино"
Роли озвучивали: Ольга Кузнецова, Виктор Бохон, Сергей Быстрицкий, Рудольф Панков, Никита Прозоровский, Александр Белявский
Субтитры: нет
Оригинальная аудиодорожка: нет
Режиссер: Ив Робер / Yves Robert
В ролях: Пьер Ришар, Жан Рошфор, Бернар Блие, Мирей Дарк, Жан Карме, Поль Ле Ле Персон, Колетт Кастель, Жан Обе, Робер Кастель, Морис Барье, Жан Содрей, Роже Каччиа, Арлетт Балкис, Таня Балашова, Робер Дальбан, Бруно Опп
Описание: Незадачливый скрипач и вечный недотепа Франсуа Перрен (Пьер Ришар) приезжает в Париж, где по недоразумению оказывается втянутым в шпионские игры французских спецслужб. Главарь одной из сверхсекретных группировок принимает этого чудаковатого растяпу за суперагента, а его лишенные логики поступки – за гениальную конспирацию. Разумеется, вторая группировка пытается использовать Франсуа как приманку. Но пока его преследуют настоящие агенты и пытаются соблазнить роковые красавицы, сам несчастный скрипач пытается разобраться в своих чувствах к жене своего лучшего друга...
Доп. информация: Спасибо Hel_ka67 за русский звук 5 канал СПб. За синхрон звуковых дорожек спасибо Medikmelik
Сэмпл: http://multi-up.com/1197213
Качество видео: BDRip
Источник: Torrentc Blu-Ray Remux.1080p.
Формат файла: AVI
Видео: XviD, 720x432 (1.67:1), 24.00 fps, 1803 kbps avg
Аудио: Russian AC3 Dolby Digital, 48 kHz, 2/0 (L,R) ch, 192.00 kbps avg (5 канал СПб)
Аудио: Russian AC3 Dolby Digital, 48 kHz, 2/0 (L,R) ch, 192.00 kbps avg («Фильм-экспорт»)

MediaInfo

General
Complete name : D:\Высокий блондин в черном ботинке (1972)\Высокий.блондин.в.черном.ботинке.1972.BDRip.MVO.5 kanalSPb.Filmexport.avi
Format : AVI
Format/Info : Audio Video Interleave
File size : 1.38 GiB
Duration : 1 h 29 min
Overall bit rate : 2 201 kb/s
Writing application : VirtualDubModRus 1.5.10.2 (build 2542/release)
Writing library : VirtualDubMod build 2542/release
Video
ID : 0
Format : MPEG-4 Visual
Format profile : Advanced Simple@L5
Format settings : BVOP1 / Custom Matrix
Format settings, BVOP : 1
Format settings, QPel : No
Format settings, GMC : No warppoints
Format settings, Matrix : Custom
Codec ID : XVID
Codec ID/Hint : XviD
Duration : 1 h 29 min
Bit rate : 1 803 kb/s
Width : 720 pixels
Height : 432 pixels
Display aspect ratio : 5:3
Frame rate : 24.000 FPS
Color space : YUV
Chroma subsampling : 4:2:0
Bit depth : 8 bits
Scan type : Progressive
Compression mode : Lossy
Bits/(Pixel*Frame) : 0.242
Stream size : 1.13 GiB (82%)
Writing library : XviD 1.2.1 (UTC 2008-12-04)
Audio #1
ID : 1
Format : AC-3
Format/Info : Audio Coding 3
Codec ID : 2000
Duration : 1 h 29 min
Bit rate mode : Constant
Bit rate : 192 kb/s
Channel(s) : 2 channels
Channel positions : Front: L R
Sampling rate : 48.0 kHz
Frame rate : 31.250 FPS (1536 SPF)
Bit depth : 16 bits
Compression mode : Lossy
Stream size : 123 MiB (9%)
Alignment : Split accross interleaves
Interleave, duration : 42 ms (1.00 video frame)
Interleave, preload duration : 500 ms
Service kind : Complete Main
Audio #2
ID : 2
Format : AC-3
Format/Info : Audio Coding 3
Codec ID : 2000
Duration : 1 h 29 min
Bit rate mode : Constant
Bit rate : 192 kb/s
Channel(s) : 2 channels
Channel positions : Front: L R
Sampling rate : 48.0 kHz
Frame rate : 31.250 FPS (1536 SPF)
Bit depth : 16 bits
Compression mode : Lossy
Stream size : 123 MiB (9%)
Alignment : Split accross interleaves
Interleave, duration : 42 ms (1.00 video frame)
Interleave, preload duration : 500 ms
Service kind : Complete Main

Скриншоты



[torrentc.info]_t_4750620.torrent
Торрент: Зарегистрирован ·  [ 2018-05-07 22:01 ] ·  7222b94ef6986b814f619ef3d2233e10aca8bda9

14 KB

Статус: проверено
Скачан: 0 раз
Размер: 1.38 GB
Оценка: 
(Голосов: 0)
Сказали спасибо: 0  Спасибо
Похожие темы
[Профиль]    [ЛС]
Показать сообщения:    
Ответить на тему

Текущее время: Сегодня 01:20

Часовой пояс: GMT + 7



Вы не можете начинать темы
Вы не можете отвечать на сообщения
Вы не можете редактировать свои сообщения
Вы не можете удалять свои сообщения
Вы не можете голосовать в опросах
Вы не можете прикреплять файлы к сообщениям
Вы можете скачивать файлы