Возвращение высокого блондина / Le Retour du grand blond (Ив Робер / Yves Robert) [1974, Франция, комедия, BDRip] MVO (5 канал СПб) + MVO («Фильм-экспорт»)

Ответить на тему
Статистика раздачи [Обновить пиров]
Размер:  1.45 GB   |    Зарегистрирован:  1 месяц 13 дней   |    Скачан:  0 раз

Полного источника не было: Никогда

 
   
 
 
 
Автор Сообщение

torrentc.info

Создавать темы 07-Май-2018 22:01

[Цитировать]

Возвращение высокого блондина / Le Retour du grand blond
Страна: Франция
Жанр: Комедия
Год выхода: 1974
Продолжительность: 01:21:05
Перевод: Профессиональный (многоголосый закадровый) киностудия 5 канал СПб
Роли озвучивали: Михаил Черняк, Александра Кожевникова, Андрей Тенетко
Перевод 2: Профессиональный (многоголосый закадровый) киностудия «Фильм-экспорт» по заказу ТРК "Останкино"
Роли озвучивали: Ольга Кузнецова, Виктор Бохон, Сергей Быстрицкий, Виктор Петров, Никита Прозоровский, Александр Белявский
Субтитры: нет
Оригинальная аудиодорожка: нет
Режиссер: Ив Робер / Yves Robert
В ролях: Пьер Ришар, Жан Рошфор, Жан Карме, Мирей Дарк, Жан Буиз, Поль Ле Ле Персон, Колетт Кастель, Анри Гибе, Антуан Бо, Поль Бонифа, Эрве Санд, Мишель Франсини, Жан Амос, Жак Жиро, Луи Наварре, Андре Болле, Мишель Дюшоссуа
Описание: Шпионские игры продолжаются. Спецслужбы не могут оставить Перрена в покое - новый министр нашёл досье на высокого блондина, заведённое Бернаром Миланом, и следуя подсказке капитана Камбрэ, подозревающего Тулуза в фарсе с высоким блондином и убийстве Милана, приказывает полковнику Тулузу представить ему «суперагента». Тот в смятении придумывает историю о том, что блондин совсем недавно погиб при выполнении спецоперации в тропиках, но министр требует привести тело на родину для захоронения с почестями. Тулуз посылает своих людей в Рио-де-Жанейро, где Перрен живёт с Кристин, чтобы убить его. Блондин снова уходит от опасности, ни о чём не подозревая. Тогда Тулуз со своими агентами похищает Кристин, и теперь блондин вынужден выполнять его требования - приехать в Париж и разыграть из себя суперагента перед министром, что убедило бы его прекратить расследование убийства Милана. Министр намеревается послать «суперагента» на важное и очень опасное задание. Тулуз хочет избавиться от блондина, после того, как он сыграет свою роль, так как теперь он «слишком ного знает». На помощь Перрену приходит его друг Морис...
Доп. информация: Русская дорожка 5 канала СПб из моей личной коллекции. За синхрон звуковых дорожек спасибо Medikmelik
Сэмпл: http://multi-up.com/1197217
Качество видео: BDRip
Спасибо за видеоряд Gellard
Формат файла: AVI
Видео: XviD, 720x432 (1.67:1), 24.00 fps, 2170 kbps avg
Аудио: Russian AC3 Dolby Digital, 48 kHz, 2/0 (L,R) ch, 192.00 kbps avg (5 канал СПб)
Аудио 2: Russian AC3 Dolby Digital, 48 kHz, 2/0 (L,R) ch, 192.00 kbps avg («Фильм-экспорт»)

MediaInfo

General
Complete name : D:\Возвращение высокого блондина (1974)\Возвращение.высокого.блондина.1974.BDRip.MVO.5 kanalSPb.Filmexport.avi
Format : AVI
Format/Info : Audio Video Interleave
File size : 1.45 GiB
Duration : 1 h 21 min
Overall bit rate : 2 568 kb/s
Movie name : Возвращение высокого блондина / The Return of the Tall Blond Man with One Black Shoe / Le retour du grand blond (1974) BDRip
Writing application : VirtualDubModRus 1.5.10.2 (build 2542/release)
Writing library : VirtualDubMod build 2542/release
Video
ID : 0
Format : MPEG-4 Visual
Format profile : Advanced Simple@L5
Format settings : BVOP1 / Custom Matrix
Format settings, BVOP : 1
Format settings, QPel : No
Format settings, GMC : No warppoints
Format settings, Matrix : Custom
Codec ID : XVID
Codec ID/Hint : XviD
Duration : 1 h 21 min
Bit rate : 2 170 kb/s
Width : 720 pixels
Height : 432 pixels
Display aspect ratio : 5:3
Frame rate : 24.000 FPS
Color space : YUV
Chroma subsampling : 4:2:0
Bit depth : 8 bits
Scan type : Progressive
Compression mode : Lossy
Bits/(Pixel*Frame) : 0.291
Stream size : 1.23 GiB (85%)
Writing library : XviD 65
Audio #1
ID : 1
Format : AC-3
Format/Info : Audio Coding 3
Codec ID : 2000
Duration : 1 h 21 min
Bit rate mode : Constant
Bit rate : 192 kb/s
Channel(s) : 2 channels
Channel positions : Front: L R
Sampling rate : 48.0 kHz
Frame rate : 31.250 FPS (1536 SPF)
Bit depth : 16 bits
Compression mode : Lossy
Stream size : 111 MiB (7%)
Alignment : Split accross interleaves
Interleave, duration : 42 ms (1.00 video frame)
Interleave, preload duratio : 500 ms
Service kind : Complete Main
Audio #2
ID : 2
Format : AC-3
Format/Info : Audio Coding 3
Codec ID : 2000
Duration : 1 h 21 min
Bit rate mode : Constant
Bit rate : 192 kb/s
Channel(s) : 2 channels
Channel positions : Front: L R
Sampling rate : 48.0 kHz
Frame rate : 31.250 FPS (1536 SPF)
Bit depth : 16 bits
Compression mode : Lossy
Stream size : 111 MiB (7%)
Alignment : Split accross interleaves
Interleave, duration : 42 ms (1.00 video frame)
Interleave, preload duratio : 500 ms
Service kind : Complete Main

Скриншоты



[torrentc.info]_t_4750648.torrent
Торрент: Зарегистрирован ·  [ 2018-05-07 22:01 ] ·  a3d278974b6bf586250a66d23b1febe64c045e85

15 KB

Статус: проверено
Скачан: 0 раз
Размер: 1.45 GB
Оценка: 
(Голосов: 0)
Сказали спасибо: 0  Спасибо
Похожие темы
[Профиль]    [ЛС]
Показать сообщения:    
Ответить на тему

Текущее время: Сегодня 15:27

Часовой пояс: GMT + 7



Вы не можете начинать темы
Вы не можете отвечать на сообщения
Вы не можете редактировать свои сообщения
Вы не можете удалять свои сообщения
Вы не можете голосовать в опросах
Вы не можете прикреплять файлы к сообщениям
Вы можете скачивать файлы