Ученик дьявола / The Devil\'s disciple (Гай Гамильтон / Guy Hamilton) [1959, США, Великобритания, драма, исторический, HDRip] VO (Orthdx/Orlov) + Sub Rus, Eng + Original Eng

Ответить на тему
Статистика раздачи [Обновить пиров]
Размер:  1.46 GB   |    Зарегистрирован:  3 месяца 10 дней   |    Скачан:  0 раз

Полного источника не было: Никогда

 
   
 
 
 
Автор Сообщение

torrentc.info

Создавать темы 07-Май-2018 00:00

[Цитировать]

Ученик дьявола / The Devil's disciple
Страна: США, Великобритания
Жанр: драма, исторический
Год выхода: 1959
Продолжительность: 01:23:09
Перевод: Одноголосый закадровый - Orthdx/Orlov
Субтитры: русские, английские
Оригинальная аудиодорожка: английский

Режиссер: Гай Гамильтон / Guy Hamilton
В ролях: Кёрк Дуглас, Лоуренс Оливье, Берт Ланкастер, Ева ЛеГальене, Джанет Скотт, Гарри Эндрюс, Бэзил Сидней, Джордж Росс
Описание: Американский фильм 1959 года по одной из первых пьес, принесших в начале XX века широкую известность своему автору - Бернарду Шоу.
Сэмпл
Качество видео: HDRip
Формат файла: AVI
Видео: 704x384 (1.83:1), 23.976 fps, XviD build 73 ~2109 kbps avg, 0.33 bit/pixel
Аудио: 48 kHz, AC3 Dolby Digital, 2/0 (L,R) ch, ~192 kbps - одноголосый
Аудио: 48 kHz, AC3 Dolby Digital, 2/0 (L,R) ch, ~192 kbps - оригинал
Формат файла субтитров: softsub (SRT)

MediaInfo

GeneralComplete name : H:\The.Devils.Disciple.1959.hdrip_[1.46]_[teko]\The.Devils.Disciple.1959.hdrip_[1.46].aviFormat : AVIFormat/Info : Audio Video InterleaveFile size : 1.46 GiBDuration : 1h 23mnOverall bit rate : 2 508 KbpsWriting application : VirtualDubMod 1.5.10.3 | www.virtualdub-fr.org || (build 2550/release)Writing library : VirtualDubMod build 2550/release
VideoID : 0Format : MPEG-4 VisualFormat profile : Advanced Simple@L5Format settings, BVOP : 2Format settings, QPel : NoFormat settings, GMC : No warppointsFormat settings, Matrix : CustomCodec ID : XVIDCodec ID/Hint : XviDDuration : 1h 23mnBit rate : 2 110 KbpsWidth : 704 pixelsHeight : 384 pixelsDisplay aspect ratio : 1.85:1Frame rate : 23.976 (23976/1000) fpsColor space : YUVChroma subsampling : 4:2:0Bit depth : 8 bitsScan type : ProgressiveCompression mode : LossyBits/(Pixel*Frame) : 0.326Stream size : 1.23 GiB (84%)Writing library : XviD 73
Audio #1ID : 1Format : AC-3Format/Info : Audio Coding 3Mode extension : CM (complete main)Format settings, Endianness : BigCodec ID : 2000Duration : 1h 23mnBit rate mode : ConstantBit rate : 192 KbpsChannel(s) : 2 channelsChannel positions : Front: L RSampling rate : 48.0 KHzFrame rate : 31.250 fps (1536 spf)Compression mode : LossyStream size : 114 MiB (8%)Alignment : Split accross interleavesInterleave, duration : 42 ms (1.00 video frame)Interleave, preload duratio : 500 ms
Audio #2ID : 2Format : AC-3Format/Info : Audio Coding 3Mode extension : CM (complete main)Format settings, Endianness : BigCodec ID : 2000Duration : 1h 23mnBit rate mode : ConstantBit rate : 192 KbpsChannel(s) : 2 channelsChannel positions : Front: L RSampling rate : 48.0 KHzFrame rate : 31.250 fps (1536 spf)Compression mode : LossyStream size : 114 MiB (8%)Alignment : Split accross interleavesInterleave, duration : 42 ms (1.00 video frame)Interleave, preload duratio : 500 ms

Скриншоты

:--


[torrentc.info]_t_5558201.torrent
Торрент: Зарегистрирован ·  [ 2018-05-07 00:00 ] ·  7dd5194a4171ec863dfae7a71b4426e51cfaafb4

15 KB

Статус: проверено
Скачан: 0 раз
Размер: 1.46 GB
Оценка: 
(Голосов: 0)
Сказали спасибо: 0  Спасибо
Похожие темы
[Профиль]    [ЛС]
Показать сообщения:    
Ответить на тему

Текущее время: Сегодня 10:25

Часовой пояс: GMT + 7



Вы не можете начинать темы
Вы не можете отвечать на сообщения
Вы не можете редактировать свои сообщения
Вы не можете удалять свои сообщения
Вы не можете голосовать в опросах
Вы не можете прикреплять файлы к сообщениям
Вы можете скачивать файлы