(Black Ambient) Aghast Manor - Gaslights - 2011, FLAC (image+.cue), lossless

Ответить на тему
Статистика раздачи [Обновить пиров]
Размер:  185 MB   |    Зарегистрирован:  5 месяцев 11 дней   |    Скачан:  0 раз

Полного источника не было: Никогда

 
   
 
 
 
Автор Сообщение

torrentc.info

Создавать темы 06-Май-2018 21:52

[Цитировать]

Aghast Manor
Gaslights

Жанр: Black Ambient
Год издания: 2011
Издатель (лейбл): Infinite Fog Prod.
Страна: Norway
Аудиокодек: FLAC (*.flac)
Тип рипа: image+.cue
Битрейт аудио: lossless
Продолжительность: 35:05
Источник (релизер): MIN KD
Наличие сканов в содержимом раздачи: да

Треклист:
1. Playtime
2. DecaDemons
3. Dance The Hanged Man' s Jig
4. The Nun Of St. Claire Abbey
5. Cross The Bridge To Manmade Insanity
6. Le Petite Mort
7. Red-Haired Jezebel
8. In My Basement
9. Waking Cthulhu
10. Fear
11. Suck My Drain

Лог создания рипа

Exact Audio Copy V0.99 prebeta 5 from 4. May 2009
Отчёт EAC об извлечении, выполненном 23. июля 2012, 19:00
AGHAST MANOR / Gaslights
Дисковод: ASUS DRW-24B3ST Adapter: 5 ID: 0
Режим чтения : ДостоверностьИспользование точного потока : ДаОтключение кэша аудио : ДаИспользование указателей C2 : Нет
Коррекция смещения при чтении : 6Способность читать области Lead-in и Lead-out : НетЗаполнение пропущенных сэмплов тишиной : ДаУдаление блоков с тишиной в начале и конце : НетПри вычислениях CRC использовались нулевые сэмплы : ДаИнтерфейс : Установленный внешний ASPI-интерфейс
Выходной формат : Пользовательский кодировщикВыбранный битрейт : 768 kBit/sКачество : ВысокийДобавление ID3-тэга : НетУтилита сжатия : C:\Program Files\Exact Audio Copy\FLAC\FLAC.EXEДополнительные параметры : -6 -V -T "ARTIST=%a" -T "TITLE=%t" -T "ALBUM=%g" -T "DATE=%y" -T "TRACKNUMBER=%n" -T "GENRE=%m" -T "COMMENT=%e" %s -o %d
TOC извлечённого CD
Трек | Старт | Длительность | Начальный сектор | Конечный сектор --------------------------------------------------------------------- 1 | 0:00.00 | 2:26.07 | 0 | 10956 2 | 2:26.07 | 2:51.35 | 10957 | 23816 3 | 5:17.42 | 3:36.29 | 23817 | 40045 4 | 8:53.71 | 3:18.73 | 40046 | 54968 5 | 12:12.69 | 2:37.27 | 54969 | 66770 6 | 14:50.21 | 3:01.09 | 66771 | 80354 7 | 17:51.30 | 3:25.26 | 80355 | 95755 8 | 21:16.56 | 3:02.34 | 95756 | 109439 9 | 24:19.15 | 2:28.10 | 109440 | 120549 10 | 26:47.25 | 3:03.59 | 120550 | 134333 11 | 29:51.09 | 5:14.20 | 134334 | 157903
Характеристики диапазона извлечения и сообщения об ошибках
Выбранный диапазон
Имя файла G:\KIILLSS\AGHAST MANOR - Gaslights.wav
Пиковый уровень 100.0 % Качество диапазона 100.0 % CRC теста 341D7876 CRC копии 341D7876 Копирование... OK
Ошибок не произошло
AccurateRip: сводка
Трек 1 нет в базе данныхТрек 2 нет в базе данныхТрек 3 нет в базе данныхТрек 4 нет в базе данныхТрек 5 нет в базе данныхТрек 6 нет в базе данныхТрек 7 нет в базе данныхТрек 8 нет в базе данныхТрек 9 нет в базе данныхТрек 10 нет в базе данныхТрек 11 нет в базе данных
Ни одного трека нет в базе AccurateRip
Конец отчёта

Состав

Andrea Nebel (AGHAST)


[torrentc.info]_t_4177367.torrent
Торрент: Зарегистрирован ·  [ 2018-05-06 21:49 ] ·  cdd5a1e54e640ee72b288cd6ed9a2d4bc85832f7

16 KB

Статус: проверено
Скачан: 0 раз
Размер: 185 MB
Оценка: 
(Голосов: 0)
Сказали спасибо: 0  Спасибо
Похожие темы
[Профиль]    [ЛС]
Показать сообщения:    
Ответить на тему

Текущее время: Сегодня 01:21

Часовой пояс: GMT + 7



Вы не можете начинать темы
Вы не можете отвечать на сообщения
Вы не можете редактировать свои сообщения
Вы не можете удалять свои сообщения
Вы не можете голосовать в опросах
Вы не можете прикреплять файлы к сообщениям
Вы можете скачивать файлы