[SACD-R][OF] Art Garfunkel - Angel Clare - 1973/2018 (Folk Rock)

Ответить на тему
Статистика раздачи [Обновить пиров]
Размер:  1.73 GB   |    Зарегистрирован:  6 месяцев 13 дней   |    Скачан:  0 раз

Полного источника не было: Никогда

 
   
 
 
 
Автор Сообщение

torrentc.info

Создавать темы 06-Май-2018 21:50

[Цитировать]

Art Garfunkel / Angel Clare- Формат файла записи/Источник записи: [SACD-R][OF]
Наличие водяных знаков: Нет
Год издания/переиздания диска: 1973/2018
Жанр: Folk Rock
Издатель (лейбл): Columbia / Sony / Vocalion
Продолжительность: 00:38:54
Наличие сканов в содержимом раздачи: Только обложка альбома-Треклист:
01. Traveling Boy
02. Down In The Willow Garden
03. I Shall Sing
04. Old Man
05. Feuilles – Oh
06. All I Know
07. Mary Was An Only Child
08. Woyaya
09. Barbara Allen
10. Another Lullaby-Формат файла: ISO (*.iso)
Тип рипа: image
Разрядность: 64(2,8 MHz/1 Bit)
Формат файла: DST64
Количество каналов: 5.1 (4.0), 2.0-Доп. информация: Engineer [Recording], Engineer [Quadraphonic Sound Supervision/Remix] – Roy Halee
Producer – Art Garfunkel, Roy Halee
Recorded By [Recordist] – Mark Friedman
Vocalion CDSML8534
Remastered By – Michael J. Dutton
Iso was made with sacd-ripper for PS3, from the magical Mr_Wicked.
Released Jan 2018
Источник (релизер): jazzyman (PS³SACD)
https://www.duttonvocalion.co.uk/proddetail.php?prod=CDSML8534
https://www.amazon.co.uk/Art-Garfunkel-Angel-Hybrid-Multi-channel/dp/B078SY83TG
https://www.discogs.com/Art-Garfunkel-Angel-Clare/release/11483120

Лог DR

foobar2000 1.3.13 / Замер динамического диапазона (DR) 1.1.1Дата отчёта: 2018-05-06 13:21:47
--------------------------------------------------------------------------------Анализ: Art Garfunkel / Angel Clair--------------------------------------------------------------------------------
DR Пики RMS Продолжительность трека--------------------------------------------------------------------------------DR16 -5.49 дБ -22.94 дБ 5:23 01-Traveling BoyDR8 -6.94 дБ -23.99 дБ 4:01 02-Down in the Willow GardenDR9 -6.46 дБ -23.83 дБ 3:32 03-I Shall SingDR8 -7.06 дБ -25.15 дБ 3:26 04-Old ManDR8 -7.01 дБ -23.92 дБ 3:11 05-Feuilles Oh Do Space Men PassDR9 -5.96 дБ -24.21 дБ 3:50 06-All I KnowDR9 -6.46 дБ -23.05 дБ 3:27 07-Mary Was an Only ChildDR8 -5.87 дБ -23.05 дБ 3:24 08-WoyayaDR8 -7.39 дБ -24.98 дБ 5:27 09-Barbara AllenDR8 -7.35 дБ -24.80 дБ 3:39 10-Another Lullaby--------------------------------------------------------------------------------
Количество треков: 10Реальные значения DR: DR9
Частота: 2822400 Гц / Частота PCM: 352800 ГцКаналов: 6Разрядность: 24Битрейт: 16934 кбит/сКодек: DST64================================================================================
--------------------------------------------------------------------------------Анализ: Art Garfunkel / Angel Clair--------------------------------------------------------------------------------
DR Пики RMS Продолжительность трека--------------------------------------------------------------------------------DR12 -5.25 дБ -19.46 дБ 5:01 01-Traveling BoyDR11 -7.08 дБ -20.35 дБ 4:00 02-Down in the Willow GardenDR13 -5.17 дБ -20.72 дБ 3:37 03-I Shall SingDR11 -6.88 дБ -21.49 дБ 3:25 04-Old ManDR12 -6.25 дБ -20.76 дБ 3:10 05-Feuilles Oh Do Space Men PassDR11 -6.40 дБ -20.39 дБ 3:50 06-All I KnowDR12 -6.33 дБ -19.67 дБ 3:26 07-Mary Was an Only ChildDR11 -6.67 дБ -19.88 дБ 3:23 08-WoyayaDR11 -7.57 дБ -21.28 дБ 5:27 09-Barbara AllenDR12 -7.00 дБ -21.98 дБ 3:34 10-Another Lullaby--------------------------------------------------------------------------------
Количество треков: 10Реальные значения DR: DR12
Частота: 2822400 Гц / Частота PCM: 352800 ГцКаналов: 2Разрядность: 24Битрейт: 5645 кбит/сКодек: DST64================================================================================

Состав

Bass – Carl Radle, Joe Osborn
Charango – Jorge Milchberg
Drums – Hal Blaine, Jim Gordon
Guitar – Dean Parks, Fred Carter, Jr., J. J. Cale*, Jerry Garcia, Larry Carlton, Louie Shelton, Paul Simon
Keyboards – Larry Knechtel, Michael Omartian
Mandolin, Bouzouki – Tommy Tedesco
Other [Use Of Grace Cathedral] – Canon Fenstermaker
Percussion – Milt Holland
Saxophone – Jack Shroer*, Jules Broussard
Strings – Ernie Freeman, Jimmy Haskell*, Peter Matz
Violin – Stuart Canin
Vocals – Dorothy Morrison, Jackie Ward, Sally Stevens, St. Mary's Choir


[torrentc.info]_t_5558157.torrent
Торрент: Зарегистрирован ·  [ 2018-05-06 21:49 ] ·  6544f6ed1a34714a6e0edee9f0ae13564f9def55

18 KB

Статус: проверено
Скачан: 0 раз
Размер: 1.73 GB
Оценка: 
(Голосов: 0)
Сказали спасибо: 0  Спасибо
Похожие темы
[Профиль]    [ЛС]
Показать сообщения:    
Ответить на тему

Текущее время: Сегодня 03:33

Часовой пояс: GMT + 7



Вы не можете начинать темы
Вы не можете отвечать на сообщения
Вы не можете редактировать свои сообщения
Вы не можете удалять свои сообщения
Вы не можете голосовать в опросах
Вы не можете прикреплять файлы к сообщениям
Вы можете скачивать файлы