(Psychedelic Rock, Blues-Rock) [CD] Human Instinct - The Zodiac Years 1972-1975 (3CD Boxset) - 2010, FLAC (tracks+.cue), lossless

Ответить на тему
Статистика раздачи [Обновить пиров]
Размер:  763 MB   |    Зарегистрирован:  3 месяца 10 дней   |    Скачан:  0 раз

Полного источника не было: Никогда

 
   
 
 
 
Автор Сообщение

torrentc.info

Создавать темы 06-Май-2018 19:44

[Цитировать]

Human Instinct / The Zodiac Years 1972-1975 Жанр: Psychedelic Rock, Blues-Rock
Носитель: CD
Страна-производитель диска (релиза): New Zealand
Год издания: 2010
Издатель (лейбл): Zodiac
Номер по каталогу: ZCD4013
Страна исполнителя (группы): New Zealand
Аудиокодек: FLAC (*.flac)
Тип рипа: tracks+.cue
Битрейт аудио: lossless
Продолжительность: 01:58:38
Источник (релизер): Cozzo
Наличие сканов в содержимом раздачи: да
Треклист:

1972 - The Zodiac Years 1972-1975 (Disc 1: Snatmin Cuthin)

Трeклист:
01. Say To Me (2:46)
02. It's A Blessing (2:45)
03. 122 (1:00)
04. Since We (3:27)
05. Rockin' Lockin' Baby (2:59)
06. Up Country City Down (3:36)
07. Simple Man (3:08)
08. Jacques Le Mere (2:32)
09. Turn Your Back On The Wind (3:20)
10. Seen The Light (2:53)

Лог создания рипа

Exact Audio Copy V1.0 beta 4 from 7. December 2014
EAC extraction logfile from 9. January 2018, 15:34
Human Instinct / The Zodiac Years 1972-1975 (Disc 1: Snatmin Cuthin)
Used drive : TSSTcorpCDDVDW SH-222AB Adapter: 1 ID: 0
Read mode : SecureUtilize accurate stream : YesDefeat audio cache : YesMake use of C2 pointers : No
Read offset correction : 6Overread into Lead-In and Lead-Out : NoFill up missing offset samples with silence : YesDelete leading and trailing silent blocks : NoNull samples used in CRC calculations : YesUsed interface : Native Win32 interface for Win NT & 2000Gap handling : Appended to previous track
Used output format : User Defined EncoderSelected bitrate : 1024 kBit/sQuality : HighAdd ID3 tag : NoCommand line compressor : C:\Program Files\Exact Audio Copy\Flac\flac.exeAdditional command line options : -8 -V -T "ARTIST=%artist%" -T "TITLE=%title%" -T "ALBUM=%albumtitle%" -T "DATE=%year%" -T "TRACKNUMBER=%tracknr%" -T "GENRE=%genre%" -T "PERFORMER=%albuminterpret%" -T "COMPOSER=%composer%" %haslyrics%--tag-from-file=LYRICS="%lyricsfile%"%haslyrics% -T "ALBUMARTIST=%albumartist%" -T "DISCNUMBER=%cdnumber%" -T "TOTALDISCS=%totalcds%" -T "TOTALTRACKS=%numtracks%" -T "COMMENT=EAC V1.0 beta 4, Secure Mode, Test & Copy, AccurateRip, FLAC -8" %source% -o %dest%
TOC of the extracted CD
Track | Start | Length | Start sector | End sector --------------------------------------------------------- 1 | 0:00.00 | 2:45.62 | 0 | 12436 2 | 2:45.62 | 2:45.19 | 12437 | 24830 3 | 5:31.06 | 1:00.31 | 24831 | 29361 4 | 6:31.37 | 3:26.44 | 29362 | 44855 5 | 9:58.06 | 2:59.14 | 44856 | 58294 6 | 12:57.20 | 3:35.74 | 58295 | 74493 7 | 16:33.19 | 3:08.27 | 74494 | 88620 8 | 19:41.46 | 2:31.69 | 88621 | 100014 9 | 22:13.40 | 3:19.63 | 100015 | 115002 10 | 25:33.28 | 2:52.67 | 115003 | 127969
Track 1
Filename D:\Human Instinct - The Zodiac Years 1972-1975 (2010 Remastered) [FLAC]\Disc 1 - Snatmin Cuthin (1972)\01 - Say To Me.wav
Pre-gap length 0:00:02.00
Peak level 100.0 % Extraction speed 1.5 X Track quality 100.0 % Test CRC 39529A90 Copy CRC 39529A90 Accurately ripped (confidence 1) [888FED69] (AR v1) Copy OK
Track 2
Filename D:\Human Instinct - The Zodiac Years 1972-1975 (2010 Remastered) [FLAC]\Disc 1 - Snatmin Cuthin (1972)\02 - It's A Blessing.wav
Peak level 100.0 % Extraction speed 1.7 X Track quality 100.0 % Test CRC 21597C4E Copy CRC 21597C4E Accurately ripped (confidence 1) [2AD1AC05] (AR v1) Copy OK
Track 3
Filename D:\Human Instinct - The Zodiac Years 1972-1975 (2010 Remastered) [FLAC]\Disc 1 - Snatmin Cuthin (1972)\03 - 122.wav
Peak level 84.7 % Extraction speed 1.1 X Track quality 99.8 % Test CRC 1FADE9EA Copy CRC 1FADE9EA Accurately ripped (confidence 1) [EB874579] (AR v1) Copy OK
Track 4
Filename D:\Human Instinct - The Zodiac Years 1972-1975 (2010 Remastered) [FLAC]\Disc 1 - Snatmin Cuthin (1972)\04 - Since We.wav
Peak level 100.0 % Extraction speed 1.9 X Track quality 100.0 % Test CRC FB5DD65A Copy CRC FB5DD65A Accurately ripped (confidence 1) [83A0A00B] (AR v1) Copy OK
Track 5
Filename D:\Human Instinct - The Zodiac Years 1972-1975 (2010 Remastered) [FLAC]\Disc 1 - Snatmin Cuthin (1972)\05 - Rockin' Lockin' Baby.wav
Peak level 100.0 % Extraction speed 2.0 X Track quality 100.0 % Test CRC F8E66192 Copy CRC F8E66192 Accurately ripped (confidence 1) [81BBBDA4] (AR v1) Copy OK
Track 6
Filename D:\Human Instinct - The Zodiac Years 1972-1975 (2010 Remastered) [FLAC]\Disc 1 - Snatmin Cuthin (1972)\06 - Up Country City Down.wav
Peak level 100.0 % Extraction speed 2.2 X Track quality 100.0 % Test CRC 4D4BB42A Copy CRC 4D4BB42A Accurately ripped (confidence 1) [36AC798C] (AR v1) Copy OK
Track 7
Filename D:\Human Instinct - The Zodiac Years 1972-1975 (2010 Remastered) [FLAC]\Disc 1 - Snatmin Cuthin (1972)\07 - Simple Man.wav
Peak level 100.0 % Extraction speed 2.3 X Track quality 100.0 % Test CRC F8997AE0 Copy CRC F8997AE0 Accurately ripped (confidence 1) [CA84B29C] (AR v1) Copy OK
Track 8
Filename D:\Human Instinct - The Zodiac Years 1972-1975 (2010 Remastered) [FLAC]\Disc 1 - Snatmin Cuthin (1972)\08 - Jacques Le Mere.wav
Peak level 100.0 % Extraction speed 2.3 X Track quality 100.0 % Test CRC 6E0D129D Copy CRC 6E0D129D Accurately ripped (confidence 1) [1BD68775] (AR v1) Copy OK
Track 9
Filename D:\Human Instinct - The Zodiac Years 1972-1975 (2010 Remastered) [FLAC]\Disc 1 - Snatmin Cuthin (1972)\09 - Turn Your Back On The Wind.wav
Peak level 100.0 % Extraction speed 2.1 X Track quality 99.9 % Test CRC 7D336D41 Copy CRC 7D336D41 Accurately ripped (confidence 1) [F91C531C] (AR v1) Copy OK
Track 10
Filename D:\Human Instinct - The Zodiac Years 1972-1975 (2010 Remastered) [FLAC]\Disc 1 - Snatmin Cuthin (1972)\10 - Seen The Light.wav
Peak level 100.0 % Extraction speed 2.5 X Track quality 100.0 % Test CRC F9740D7C Copy CRC F9740D7C Accurately ripped (confidence 1) [C811F9B2] (AR v1) Copy OK
All tracks accurately ripped
No errors occurred
End of status report
---- CUETools DB Plugin V2.1.4
[CTDB TOCID: bkjE3cOrnTgM3JZ62UECDb3UW_E-] foundSubmit result: bkjE3cOrnTgM3JZ62UECDb3UW_E- has been confirmedTrack | CTDB Status 1 | (1/1) Accurately ripped 2 | (1/1) Accurately ripped 3 | (1/1) Accurately ripped 4 | (1/1) Accurately ripped 5 | (1/1) Accurately ripped 6 | (1/1) Accurately ripped 7 | (1/1) Accurately ripped 8 | (1/1) Accurately ripped 9 | (1/1) Accurately ripped 10 | (1/1) Accurately ripped
==== Log checksum 2146C65365AA50A134B841FD15FEE6C5288781CE2D88EB39B33AA73633611333 ====

Содержание индексной карты (.CUE)

REM GENRE "Psychedelic Rock"REM DATE 1972REM DISCID 8306AA0AREM COMMENT "ExactAudioCopy v1.0b4"PERFORMER "Human Instinct"TITLE "The Zodiac Years 1972-1975 (Disc 1: Snatmin Cuthin) "FILE "01 - Say To Me.wav" WAVE TRACK 01 AUDIO TITLE "Say To Me" PERFORMER "Human Instinct" ISRC NZZD01000377 INDEX 01 00:00:00FILE "02 - It's A Blessing.wav" WAVE TRACK 02 AUDIO TITLE "It's A Blessing" PERFORMER "Human Instinct" ISRC NZZD01000378 INDEX 01 00:00:00FILE "03 - 122.wav" WAVE TRACK 03 AUDIO TITLE "122" PERFORMER "Human Instinct" ISRC NZZD01000379 INDEX 01 00:00:00FILE "04 - Since We.wav" WAVE TRACK 04 AUDIO TITLE "Since We" PERFORMER "Human Instinct" ISRC NZZD01000380 INDEX 01 00:00:00FILE "05 - Rockin' Lockin' Baby.wav" WAVE TRACK 05 AUDIO TITLE "Rockin' Lockin' Baby" PERFORMER "Human Instinct" ISRC NZZD01000381 INDEX 01 00:00:00FILE "06 - Up Country City Down.wav" WAVE TRACK 06 AUDIO TITLE "Up Country City Down" PERFORMER "Human Instinct" ISRC NZZD01000382 INDEX 01 00:00:00FILE "07 - Simple Man.wav" WAVE TRACK 07 AUDIO TITLE "Simple Man" PERFORMER "Human Instinct" ISRC NZZD01000383 INDEX 01 00:00:00FILE "08 - Jacques Le Mere.wav" WAVE TRACK 08 AUDIO TITLE "Jacques Le Mere" PERFORMER "Human Instinct" ISRC NZZD01000384 INDEX 01 00:00:00FILE "09 - Turn Your Back On The Wind.wav" WAVE TRACK 09 AUDIO TITLE "Turn Your Back On The Wind" PERFORMER "Human Instinct" ISRC NZZD01000385 INDEX 01 00:00:00FILE "10 - Seen The Light.wav" WAVE TRACK 10 AUDIO TITLE "Seen The Light" PERFORMER "Human Instinct" ISRC NZZD01000386 INDEX 01 00:00:00

Лог проверки качества

-----------------------
DON'T MODIFY THIS FILE
-----------------------
PERFORMER: auCDtect Task Manager, ver. 1.6.0 RC1 build 1.6.0.1Copyright (c) 2008-2010 y-soft. All rights reservedhttp://y-soft.org
ANALYZER: auCDtect: CD records authenticity detector, version 0.8.2Copyright (c) 2004 Oleg Berngardt. All rights reserved.Copyright (c) 2004 Alexander Djourik. All rights reserved.
FILE: 10 - Seen The Light.flac Size: 18195140 Hash: 311F0FD46A43DA07310D4EB310B24E74 Accuracy: -m0 Conclusion: CDDA 100% Signature: 78CDBB1BCA6DAF26D4BA95FEB36AC2CDD11CE33AFILE: 09 - Turn Your Back On The Wind.flac Size: 20422105 Hash: 72C040AF36524BE773FC2AF91238CA23 Accuracy: -m0 Conclusion: CDDA 99% Signature: 1824DBA7D4181B51E0CB00230C5189FDAB18CBB0FILE: 08 - Jacques Le Mere.flac Size: 16372510 Hash: 8D191B5100AA09872CD88CA4A79C79AA Accuracy: -m0 Conclusion: CDDA 100% Signature: DA7C3C9A4E838D250DDB99848CC58B3799D4A6A2FILE: 07 - Simple Man.flac Size: 18862529 Hash: AB02963E70E6B55AD84F119769D1CD35 Accuracy: -m0 Conclusion: CDDA 100% Signature: 6361E5A4ADE656328F946DA2C0CF1AD43359ECCEFILE: 06 - Up Country City Down.flac Size: 22773099 Hash: 66856187C155D5524D76BCDE5D5A6AA3 Accuracy: -m0 Conclusion: CDDA 100% Signature: 2079B95AF877954AE162D31D3BBFA22BB4713FA7FILE: 05 - Rockin' Lockin' Baby.flac Size: 19683849 Hash: C1BAC1F9A99C3BFD70811225FA969F61 Accuracy: -m0 Conclusion: CDDA 100% Signature: 8CEFB9153962D8B8098028D24D81EE2C1B7B75BBFILE: 04 - Since We.flac Size: 22019891 Hash: AAD63741BFB8379CD6FCCA580FF8F5AA Accuracy: -m0 Conclusion: CDDA 100% Signature: 0FF4FF6F560F1CC761A8EFD5B5E8C119890DDCD6FILE: 03 - 122.flac Size: 4747224 Hash: A2F269A3A75662993187D97F47EAD503 Accuracy: -m0 Conclusion: CDDA 100% Signature: 696A41760491CCBCF7E9D05B28355AC31B74A80CFILE: 02 - It's A Blessing.flac Size: 16816109 Hash: C50B827B5ED3D5E42B7E9B8E8A1F837C Accuracy: -m0 Conclusion: CDDA 100% Signature: 9BAA8935CE8533F8EC12D0F01C5A75E8DA5AE4A6FILE: 01 - Say To Me.flac Size: 18595477 Hash: 70B367B7BFE9A93757FC616631B5B0A5 Accuracy: -m0 Conclusion: CDDA 100% Signature: 493318B56DE0F9B5AFB3D08028D88CCF2827274C
Прoдолжительность: 00:28:26

1974 - The Zodiac Years 1972-1975 (Disc 2: The Hustler)

Трeклист:
01. The Hustler (4:12)
02. Mae West & My Gangster Hero (4:26)
03. Funky Monkey (3:55)
04. Johnny Blade (3:26)
05. Last Breakfast (3:38)
06. Passing Lines (7:11)
07. Gypsy Lady (4:18)
08. Nothing's Changed (2:39)
09. Stoned Mary (6:15)

Лог создания рипа

Exact Audio Copy V1.0 beta 4 from 7. December 2014
EAC extraction logfile from 9. January 2018, 16:00
Human Instinct / The Zodiac Years 1972-1975 (Disc 2: The Hustler)
Used drive : TSSTcorpCDDVDW SH-222AB Adapter: 1 ID: 0
Read mode : SecureUtilize accurate stream : YesDefeat audio cache : YesMake use of C2 pointers : No
Read offset correction : 6Overread into Lead-In and Lead-Out : NoFill up missing offset samples with silence : YesDelete leading and trailing silent blocks : NoNull samples used in CRC calculations : YesUsed interface : Native Win32 interface for Win NT & 2000Gap handling : Appended to previous track
Used output format : User Defined EncoderSelected bitrate : 1024 kBit/sQuality : HighAdd ID3 tag : NoCommand line compressor : C:\Program Files\Exact Audio Copy\Flac\flac.exeAdditional command line options : -8 -V -T "ARTIST=%artist%" -T "TITLE=%title%" -T "ALBUM=%albumtitle%" -T "DATE=%year%" -T "TRACKNUMBER=%tracknr%" -T "GENRE=%genre%" -T "PERFORMER=%albuminterpret%" -T "COMPOSER=%composer%" %haslyrics%--tag-from-file=LYRICS="%lyricsfile%"%haslyrics% -T "ALBUMARTIST=%albumartist%" -T "DISCNUMBER=%cdnumber%" -T "TOTALDISCS=%totalcds%" -T "TOTALTRACKS=%numtracks%" -T "COMMENT=EAC V1.0 beta 4, Secure Mode, Test & Copy, AccurateRip, FLAC -8" %source% -o %dest%
TOC of the extracted CD
Track | Start | Length | Start sector | End sector --------------------------------------------------------- 1 | 0:00.00 | 4:12.13 | 0 | 18912 2 | 4:12.13 | 4:25.72 | 18913 | 38859 3 | 8:38.10 | 3:55.14 | 38860 | 56498 4 | 12:33.24 | 3:25.62 | 56499 | 71935 5 | 15:59.11 | 3:37.45 | 71936 | 88255 6 | 19:36.56 | 7:11.10 | 88256 | 120590 7 | 26:47.66 | 4:18.06 | 120591 | 139946 8 | 31:05.72 | 2:39.13 | 139947 | 151884 9 | 33:45.10 | 6:14.74 | 151885 | 180008
Track 1
Filename D:\Human Instinct - The Zodiac Years 1972-1975 (2010 Remastered) [FLAC]\Disc 2 - The Hustler (1974)\01 - The Hustler.wav
Pre-gap length 0:00:02.00
Peak level 100.0 % Extraction speed 4.3 X Track quality 100.0 % Test CRC 5685030A Copy CRC 5685030A Accurately ripped (confidence 1) [DDCA5CF8] (AR v1) Copy OK
Track 2
Filename D:\Human Instinct - The Zodiac Years 1972-1975 (2010 Remastered) [FLAC]\Disc 2 - The Hustler (1974)\02 - Mae West & My Gangster Hero.wav
Peak level 100.0 % Extraction speed 4.0 X Track quality 99.9 % Test CRC 08F8FD54 Copy CRC 08F8FD54 Accurately ripped (confidence 1) [6A976CCF] (AR v1) Copy OK
Track 3
Filename D:\Human Instinct - The Zodiac Years 1972-1975 (2010 Remastered) [FLAC]\Disc 2 - The Hustler (1974)\03 - Funky Monkey.wav
Peak level 100.0 % Extraction speed 5.2 X Track quality 100.0 % Test CRC 2DEABD54 Copy CRC 2DEABD54 Accurately ripped (confidence 1) [21C80997] (AR v1) Copy OK
Track 4
Filename D:\Human Instinct - The Zodiac Years 1972-1975 (2010 Remastered) [FLAC]\Disc 2 - The Hustler (1974)\04 - Johnny Blade.wav
Peak level 100.0 % Extraction speed 4.3 X Track quality 99.9 % Test CRC 6AB53535 Copy CRC 6AB53535 Accurately ripped (confidence 1) [CB98507E] (AR v1) Copy OK
Track 5
Filename D:\Human Instinct - The Zodiac Years 1972-1975 (2010 Remastered) [FLAC]\Disc 2 - The Hustler (1974)\05 - Last Breakfast.wav
Peak level 100.0 % Extraction speed 5.8 X Track quality 100.0 % Test CRC 468C382F Copy CRC 468C382F Accurately ripped (confidence 1) [4A0E2523] (AR v1) Copy OK
Track 6
Filename D:\Human Instinct - The Zodiac Years 1972-1975 (2010 Remastered) [FLAC]\Disc 2 - The Hustler (1974)\06 - Passing Lines.wav
Peak level 100.0 % Extraction speed 6.7 X Track quality 100.0 % Test CRC 81946686 Copy CRC 81946686 Accurately ripped (confidence 1) [7E3165CF] (AR v1) Copy OK
Track 7
Filename D:\Human Instinct - The Zodiac Years 1972-1975 (2010 Remastered) [FLAC]\Disc 2 - The Hustler (1974)\07 - Gypsy Lady.wav
Peak level 100.0 % Extraction speed 6.8 X Track quality 100.0 % Test CRC 7574C5A0 Copy CRC 7574C5A0 Accurately ripped (confidence 1) [5E3AF478] (AR v1) Copy OK
Track 8
Filename D:\Human Instinct - The Zodiac Years 1972-1975 (2010 Remastered) [FLAC]\Disc 2 - The Hustler (1974)\08 - Nothing's Changed.wav
Peak level 100.0 % Extraction speed 6.5 X Track quality 100.0 % Test CRC 5D2E78B0 Copy CRC 5D2E78B0 Accurately ripped (confidence 1) [E0693F27] (AR v1) Copy OK
Track 9
Filename D:\Human Instinct - The Zodiac Years 1972-1975 (2010 Remastered) [FLAC]\Disc 2 - The Hustler (1974)\09 - Stoned Mary.wav
Peak level 100.0 % Extraction speed 7.6 X Track quality 100.0 % Test CRC 9B229454 Copy CRC 9B229454 Accurately ripped (confidence 1) [FE2648EA] (AR v1) Copy OK
All tracks accurately ripped
No errors occurred
End of status report
---- CUETools DB Plugin V2.1.4
[CTDB TOCID: kGfBc7ACK5BNIqkCJSGxqd6jzWc-] foundSubmit result: kGfBc7ACK5BNIqkCJSGxqd6jzWc- has been confirmedTrack | CTDB Status 1 | (1/1) Accurately ripped 2 | (1/1) Accurately ripped 3 | (1/1) Accurately ripped 4 | (1/1) Accurately ripped 5 | (1/1) Accurately ripped 6 | (1/1) Accurately ripped 7 | (1/1) Accurately ripped 8 | (1/1) Accurately ripped 9 | (1/1) Accurately ripped
==== Log checksum F4A83A374A607569C0A22E5D1FDBFF86E7EA1C67DD27467BEC3EF3838442F5F9 ====

Содержание индексной карты (.CUE)

REM GENRE "Psychedelic Rock"REM DATE 1974REM DISCID 77096009REM COMMENT "ExactAudioCopy v1.0b4"PERFORMER "Human Instinct"TITLE "The Zodiac Years 1972-1975 (Disc 2: The Hustler)"FILE "01 - The Hustler.wav" WAVE TRACK 01 AUDIO TITLE "The Hustler" PERFORMER "Human Instinct" ISRC NZZD01000387 INDEX 01 00:00:00FILE "02 - Mae West & My Gangster Hero.wav" WAVE TRACK 02 AUDIO TITLE "Mae West & My Gangster Hero" PERFORMER "Human Instinct" ISRC NZZD01000388 INDEX 01 00:00:00FILE "03 - Funky Monkey.wav" WAVE TRACK 03 AUDIO TITLE "Funky Monkey" PERFORMER "Human Instinct" ISRC NZZD01000389 INDEX 01 00:00:00FILE "04 - Johnny Blade.wav" WAVE TRACK 04 AUDIO TITLE "Johnny Blade" PERFORMER "Human Instinct" ISRC NZZD01000390 INDEX 01 00:00:00FILE "05 - Last Breakfast.wav" WAVE TRACK 05 AUDIO TITLE "Last Breakfast" PERFORMER "Human Instinct" ISRC NZZD01000391 INDEX 01 00:00:00FILE "06 - Passing Lines.wav" WAVE TRACK 06 AUDIO TITLE "Passing Lines" PERFORMER "Human Instinct" ISRC NZZD01000392 INDEX 01 00:00:00FILE "07 - Gypsy Lady.wav" WAVE TRACK 07 AUDIO TITLE "Gypsy Lady" PERFORMER "Human Instinct" ISRC NZZD01000393 INDEX 01 00:00:00FILE "08 - Nothing's Changed.wav" WAVE TRACK 08 AUDIO TITLE "Nothing's Changed" PERFORMER "Human Instinct" ISRC NZZD01000394 INDEX 01 00:00:00FILE "09 - Stoned Mary.wav" WAVE TRACK 09 AUDIO TITLE "Stoned Mary" PERFORMER "Human Instinct" ISRC NZZD01000395 INDEX 01 00:00:00

Лог проверки качества

-----------------------
DON'T MODIFY THIS FILE
-----------------------
PERFORMER: auCDtect Task Manager, ver. 1.6.0 RC1 build 1.6.0.1Copyright (c) 2008-2010 y-soft. All rights reservedhttp://y-soft.org
ANALYZER: auCDtect: CD records authenticity detector, version 0.8.2Copyright (c) 2004 Oleg Berngardt. All rights reserved.Copyright (c) 2004 Alexander Djourik. All rights reserved.
FILE: 09 - Stoned Mary.flac Size: 41894814 Hash: 43059503F48D2528FFE9582D42274985 Accuracy: -m0 Conclusion: CDDA 100% Signature: E8F8B8960FF33980F669AD830A4850CC61F98144FILE: 08 - Nothing's Changed.flac Size: 17096889 Hash: 8FC69487F34FACEDC8AAB3CF1AD1BEDE Accuracy: -m0 Conclusion: CDDA 100% Signature: 12F69E3B259F9A55D370A8DF9BB8872D798873A8FILE: 07 - Gypsy Lady.flac Size: 26189724 Hash: 3B6F1CF8CEF425CBADBF157149365760 Accuracy: -m0 Conclusion: CDDA 100% Signature: 812A360413E119A10B0A17CF404E409B095A2520FILE: 06 - Passing Lines.flac Size: 50831786 Hash: 6CFACC4500529452819092975DD5319F Accuracy: -m0 Conclusion: CDDA 100% Signature: F10FFEE88F91B7313F92E445E46B6E8D2A25309AFILE: 05 - Last Breakfast.flac Size: 23697630 Hash: 20DF313B59A8740B5FACA55EBCABE868 Accuracy: -m0 Conclusion: CDDA 100% Signature: FB0F325788C57080967DCE2B2C940F2CB1CF4245FILE: 04 - Johnny Blade.flac Size: 23448059 Hash: 909D527015D52D397B27EE6B309349DD Accuracy: -m0 Conclusion: CDDA 100% Signature: C43405E98830B9CD7057D9C41F53845CFF7962E0FILE: 03 - Funky Monkey.flac Size: 25835239 Hash: 89081BCB9D747F24292FC275318C3093 Accuracy: -m0 Conclusion: CDDA 100% Signature: F7AEFF09F690A2D530EBE9AF341F36B10D9370B7FILE: 02 - Mae West & My Gangster Hero.flac Size: 30028310 Hash: 766951F12D9E0E94214E67547C4005DE Accuracy: -m0 Conclusion: CDDA 100% Signature: 7012EA6F96496F1BD25175F143C8EC3D28B5C1F1FILE: 01 - The Hustler.flac Size: 28520005 Hash: CE579FC9014A0AB5BD87F10E698F357C Accuracy: -m0 Conclusion: CDDA 100% Signature: A85622E128A181640FD9776E47FEA9BFAC9853A2
Прoдолжительность: 00:40:00

2002 - The Zodiac Years 1972-1975 (Disc 3: Peg Leg (The Lost Tapes))

Трeклист:
01. Freebird (9:18)
02. All Time Loser (4:32)
03. Find Your Heart (7:39)
04. Peg Leg (3:05)
05. For A Friend Pt. I (5:25)
06. For A Friend Pt. 2 (3:42)
07. Fallen Star (5:10)
08. Hey You (4:12)
09. Tight Rope Lover (4:46)
10. Instinct (2:23)

Лог создания рипа

Exact Audio Copy V1.0 beta 4 from 7. December 2014
EAC extraction logfile from 9. January 2018, 16:33
Human Instinct / The Zodiac Years 1972-1975 (Disc 3: Peg Leg (The Lost Tapes))
Used drive : TSSTcorpCDDVDW SH-222AB Adapter: 1 ID: 0
Read mode : SecureUtilize accurate stream : YesDefeat audio cache : YesMake use of C2 pointers : No
Read offset correction : 6Overread into Lead-In and Lead-Out : NoFill up missing offset samples with silence : YesDelete leading and trailing silent blocks : NoNull samples used in CRC calculations : YesUsed interface : Native Win32 interface for Win NT & 2000Gap handling : Appended to previous track
Used output format : User Defined EncoderSelected bitrate : 1024 kBit/sQuality : HighAdd ID3 tag : NoCommand line compressor : C:\Program Files\Exact Audio Copy\Flac\flac.exeAdditional command line options : -8 -V -T "ARTIST=%artist%" -T "TITLE=%title%" -T "ALBUM=%albumtitle%" -T "DATE=%year%" -T "TRACKNUMBER=%tracknr%" -T "GENRE=%genre%" -T "PERFORMER=%albuminterpret%" -T "COMPOSER=%composer%" %haslyrics%--tag-from-file=LYRICS="%lyricsfile%"%haslyrics% -T "ALBUMARTIST=%albumartist%" -T "DISCNUMBER=%cdnumber%" -T "TOTALDISCS=%totalcds%" -T "TOTALTRACKS=%numtracks%" -T "COMMENT=EAC V1.0 beta 4, Secure Mode, Test & Copy, AccurateRip, FLAC -8" %source% -o %dest%
TOC of the extracted CD
Track | Start | Length | Start sector | End sector --------------------------------------------------------- 1 | 0:00.00 | 9:17.46 | 0 | 41820 2 | 9:17.46 | 4:32.30 | 41821 | 62250 3 | 13:50.01 | 7:39.17 | 62251 | 96692 4 | 21:29.18 | 3:05.07 | 96693 | 110574 5 | 24:34.25 | 5:25.27 | 110575 | 134976 6 | 29:59.52 | 3:41.58 | 134977 | 151609 7 | 33:41.35 | 5:09.67 | 151610 | 174851 8 | 38:51.27 | 4:11.44 | 174852 | 193720 9 | 43:02.71 | 4:46.11 | 193721 | 215181 10 | 47:49.07 | 2:22.54 | 215182 | 225885
Track 1
Filename D:\Human Instinct - The Zodiac Years 1972-1975 (2010 Remastered) [FLAC]\Disc 3 - Peg Leg (The Lost Tapes) (2002)\01 - Freebird.wav
Pre-gap length 0:00:02.00
Peak level 100.0 % Extraction speed 3.9 X Track quality 100.0 % Test CRC F878FB1F Copy CRC F878FB1F Accurately ripped (confidence 1) [27F98508] (AR v1) Copy OK
Track 2
Filename D:\Human Instinct - The Zodiac Years 1972-1975 (2010 Remastered) [FLAC]\Disc 3 - Peg Leg (The Lost Tapes) (2002)\02 - All Time Loser.wav
Peak level 100.0 % Extraction speed 4.3 X Track quality 100.0 % Test CRC D5BCAA31 Copy CRC D5BCAA31 Accurately ripped (confidence 1) [7C929BA5] (AR v1) Copy OK
Track 3
Filename D:\Human Instinct - The Zodiac Years 1972-1975 (2010 Remastered) [FLAC]\Disc 3 - Peg Leg (The Lost Tapes) (2002)\03 - Find Your Heart.wav
Peak level 100.0 % Extraction speed 4.9 X Track quality 100.0 % Test CRC 2D68FA35 Copy CRC 2D68FA35 Accurately ripped (confidence 1) [DFD595B2] (AR v1) Copy OK
Track 4
Filename D:\Human Instinct - The Zodiac Years 1972-1975 (2010 Remastered) [FLAC]\Disc 3 - Peg Leg (The Lost Tapes) (2002)\04 - Peg Leg.wav
Peak level 100.0 % Extraction speed 4.8 X Track quality 100.0 % Test CRC DFDD310E Copy CRC DFDD310E Accurately ripped (confidence 1) [50056FE8] (AR v1) Copy OK
Track 5
Filename D:\Human Instinct - The Zodiac Years 1972-1975 (2010 Remastered) [FLAC]\Disc 3 - Peg Leg (The Lost Tapes) (2002)\05 - For A Friend Pt. I.wav
Peak level 100.0 % Extraction speed 4.6 X Track quality 99.9 % Test CRC 56B53B89 Copy CRC 56B53B89 Accurately ripped (confidence 1) [9A0AFF06] (AR v1) Copy OK
Track 6
Filename D:\Human Instinct - The Zodiac Years 1972-1975 (2010 Remastered) [FLAC]\Disc 3 - Peg Leg (The Lost Tapes) (2002)\06 - For A Friend Pt. 2.wav
Peak level 100.0 % Extraction speed 4.3 X Track quality 99.9 % Test CRC 4A7A61E3 Copy CRC 4A7A61E3 Accurately ripped (confidence 1) [B9272681] (AR v1) Copy OK
Track 7
Filename D:\Human Instinct - The Zodiac Years 1972-1975 (2010 Remastered) [FLAC]\Disc 3 - Peg Leg (The Lost Tapes) (2002)\07 - Fallen Star.wav
Peak level 100.0 % Extraction speed 5.9 X Track quality 100.0 % Test CRC 882E5B08 Copy CRC 882E5B08 Accurately ripped (confidence 1) [7D3103B5] (AR v1) Copy OK
Track 8
Filename D:\Human Instinct - The Zodiac Years 1972-1975 (2010 Remastered) [FLAC]\Disc 3 - Peg Leg (The Lost Tapes) (2002)\08 - Hey You.wav
Peak level 100.0 % Extraction speed 6.0 X Track quality 100.0 % Test CRC FE579E87 Copy CRC FE579E87 Accurately ripped (confidence 1) [48D21811] (AR v1) Copy OK
Track 9
Filename D:\Human Instinct - The Zodiac Years 1972-1975 (2010 Remastered) [FLAC]\Disc 3 - Peg Leg (The Lost Tapes) (2002)\09 - Tight Rope Lover.wav
Peak level 100.0 % Extraction speed 5.2 X Track quality 99.9 % Test CRC 7431ABEB Copy CRC 7431ABEB Accurately ripped (confidence 1) [14B5AF2C] (AR v1) Copy OK
Track 10
Filename D:\Human Instinct - The Zodiac Years 1972-1975 (2010 Remastered) [FLAC]\Disc 3 - Peg Leg (The Lost Tapes) (2002)\10 - Instinct.wav
Peak level 100.0 % Extraction speed 5.8 X Track quality 100.0 % Test CRC D386AB8B Copy CRC D386AB8B Accurately ripped (confidence 1) [147248F3] (AR v1) Copy OK
All tracks accurately ripped
No errors occurred
End of status report
---- CUETools DB Plugin V2.1.4
[CTDB TOCID: 3vZOlLIfz4DjKi4OB1Bz3LcQzUs-] disk not present in databaseSubmit result: 3vZOlLIfz4DjKi4OB1Bz3LcQzUs- has been uploaded
==== Log checksum 98CE8DBF40C72B0D40DE556E0446E57CCD6FBDCE3EE64B008696D8EF6F9FF06B ====

Содержание индексной карты (.CUE)

REM GENRE "Psychedelic Rock"REM DATE 2002REM DISCID 820BC30AREM COMMENT "ExactAudioCopy v1.0b4"PERFORMER "Human Instinct"TITLE "The Zodiac Years 1972-1975 (Disc 3: Peg Leg (The Lost Tapes))"FILE "01 - Freebird.wav" WAVE TRACK 01 AUDIO TITLE "Freebird" PERFORMER "Human Instinct" ISRC NZZD01000396 INDEX 01 00:00:00FILE "02 - All Time Loser.wav" WAVE TRACK 02 AUDIO TITLE "All Time Loser" PERFORMER "Human Instinct" ISRC NZZD01000397 INDEX 01 00:00:00FILE "03 - Find Your Heart.wav" WAVE TRACK 03 AUDIO TITLE "Find Your Heart" PERFORMER "Human Instinct" ISRC NZZD01000398 INDEX 01 00:00:00FILE "04 - Peg Leg.wav" WAVE TRACK 04 AUDIO TITLE "Peg Leg" PERFORMER "Human Instinct" ISRC NZZD01000399 INDEX 01 00:00:00FILE "05 - For A Friend Pt. I.wav" WAVE TRACK 05 AUDIO TITLE "For A Friend Pt. I" PERFORMER "Human Instinct" ISRC NZZD01000400 INDEX 01 00:00:00FILE "06 - For A Friend Pt. 2.wav" WAVE TRACK 06 AUDIO TITLE "For A Friend Pt. 2" PERFORMER "Human Instinct" ISRC NZZD01000401 INDEX 01 00:00:00FILE "07 - Fallen Star.wav" WAVE TRACK 07 AUDIO TITLE "Fallen Star" PERFORMER "Human Instinct" ISRC NZZD01000402 INDEX 01 00:00:00FILE "08 - Hey You.wav" WAVE TRACK 08 AUDIO TITLE "Hey You" PERFORMER "Human Instinct" ISRC NZZD01000403 INDEX 01 00:00:00FILE "09 - Tight Rope Lover.wav" WAVE TRACK 09 AUDIO TITLE "Tight Rope Lover" PERFORMER "Human Instinct" ISRC NZZD01000404 INDEX 01 00:00:00FILE "10 - Instinct.wav" WAVE TRACK 10 AUDIO TITLE "Instinct" PERFORMER "Human Instinct" ISRC NZZD01000405 INDEX 01 00:00:00

Лог проверки качества

-----------------------
DON'T MODIFY THIS FILE
-----------------------
PERFORMER: auCDtect Task Manager, ver. 1.6.0 RC1 build 1.6.0.1Copyright (c) 2008-2010 y-soft. All rights reservedhttp://y-soft.org
ANALYZER: auCDtect: CD records authenticity detector, version 0.8.2Copyright (c) 2004 Oleg Berngardt. All rights reserved.Copyright (c) 2004 Alexander Djourik. All rights reserved.
FILE: 10 - Instinct.flac Size: 15404369 Hash: EFCFBC59F968F8237EBCA196BD33A50D Accuracy: -m0 Conclusion: CDDA 100% Signature: FF9155F52E72D2BD58D5A26D46B82E64E38373DBFILE: 09 - Tight Rope Lover.flac Size: 31444240 Hash: A2E507CCA5BAD2D6ACB9F12298B249D7 Accuracy: -m0 Conclusion: CDDA 100% Signature: 4B59DF9D44CDE8BEFDDB8D58715A1D4101823B0BFILE: 08 - Hey You.flac Size: 28766226 Hash: 1703DE65287CB5B354967E4957F73040 Accuracy: -m0 Conclusion: CDDA 100% Signature: 20F241D73E3837E8B889AB3637081431CBBFED45FILE: 07 - Fallen Star.flac Size: 34490114 Hash: 22590A3B92C5EE2A1D18787AE0DC6CD5 Accuracy: -m0 Conclusion: CDDA 100% Signature: 993234746D8A47DFBDA795FE5F938AAA103BE5F0FILE: 06 - For A Friend Pt. 2.flac Size: 24447884 Hash: 74B835DAD1C36BA3225FB840EFA5B237 Accuracy: -m0 Conclusion: CDDA 100% Signature: D307602C919115801490A27A7F7B6D078B9E8B13FILE: 05 - For A Friend Pt. I.flac Size: 32731756 Hash: 52F930FACF0CE41C0E35E67E163664ED Accuracy: -m0 Conclusion: CDDA 100% Signature: 91FBD4A2A698903BC30B1C7750680B3EE1488BF6FILE: 04 - Peg Leg.flac Size: 19212450 Hash: 1A468E93270CB715FEC05317BE44545A Accuracy: -m0 Conclusion: CDDA 100% Signature: F635F7E9B1D000EE21495D00E76DD29667905B07FILE: 03 - Find Your Heart.flac Size: 50738350 Hash: 8EBAF06C60D9D2F80D0C5E9A278634C6 Accuracy: -m0 Conclusion: CDDA 100% Signature: F089D8966B30F0AFCA16D9A424EA54C8A9ABE1EAFILE: 02 - All Time Loser.flac Size: 30783444 Hash: 9BAE17BDB8B6E43380A10019A8AD6814 Accuracy: -m0 Conclusion: CDDA 100% Signature: 7FC9A8727026516D88D6889D253AE8C3A72F1649FILE: 01 - Freebird.flac Size: 64560509 Hash: 5C622ED9DE6D020B18C44ED1791C909C Accuracy: -m0 Conclusion: CDDA 100% Signature: B3674E3EEFCD3CD56881F895FFDF0BD0013CBF64
Прoдолжительность: 00:50:12

Об альбоме (сборнике)

https://www.discogs.com/The-Human-Instinct-The-Zodiac-Years-1972-1975/release/9811479
Zodiac - ZCD4013 Format: 3CD, Album, Reissue, Remastered Box Set Country: New Zealand Released: 2010
http://www.muzic.net.nz/artists/71/human-instinct
As one of New Zealand's premier groups, Human Instinct have contributed a large portfolio of illustrious recorded works to that country's musical landscape. The group had it's origins in Tauranga in 1958 as the Four Fours, and after major local success became the first Kiwi beat band to try the London scene. They ended up performing on the same stage as some of rock music's greats including The Rolling Stones, Jimi Hendrix, The Small Faces, The Spencer Davis Group, The Moody Blues and Manfred Mann.
'The Zodiac Years' is a box set containing 3 Human Instinct albums - 'Snatmin Cuthin' (1972), 'The Hustler' (1974) and 'Peg Leg (The Lost Tapes - 1974/2002)', all of which have been remastered from the original Zodiac tapes.

https://en.wikipedia.org/wiki/The_Human_Instinct
Snatmin Cuthin (1972) # сомнительно
The Hustler (1974) Test CRC нет
Peg Leg (The Lost Tapes) (2002) # сомнительно
[url=tracker.php?f=1704&nm=Human+Instinct]Human Instinct по разделу Progressive & Art-Rock (lossless)[/url]


[torrentc.info]_t_5558075.torrent
Торрент: Зарегистрирован ·  [ 2018-05-06 19:44 ] ·  a8a187dea2db23273acb7e54ac946d35848ee061

35 KB

Статус: проверено
Скачан: 0 раз
Размер: 763 MB
Оценка: 
(Голосов: 0)
Сказали спасибо: 0  Спасибо
Похожие темы
[Профиль]    [ЛС]
Показать сообщения:    
Ответить на тему

Текущее время: Сегодня 10:19

Часовой пояс: GMT + 7



Вы не можете начинать темы
Вы не можете отвечать на сообщения
Вы не можете редактировать свои сообщения
Вы не можете удалять свои сообщения
Вы не можете голосовать в опросах
Вы не можете прикреплять файлы к сообщениям
Вы можете скачивать файлы