(RPI) [CD] Simon Luca & L\'Enorme Maria - E La Mia Mente? - 1973 (1995 Vinyl Magic), FLAC (tracks+.cue), lossless

Ответить на тему
Статистика раздачи [Обновить пиров]
Размер:  208 MB   |    Зарегистрирован:  5 месяцев 12 дней   |    Скачан:  0 раз

Полного источника не было: Никогда

 
   
 
 
 
Автор Сообщение

torrentc.info

Создавать темы 05-Май-2018 23:01

[Цитировать]

--Simon Luca & L'Enorme Maria - E La Mia Mente? - 1973 (1995 Vinyl Magic)-- Жанр: RPI
Носитель: CD (Album, Reissue, Remastered)
Страна-производитель диска (релиза): Italy
Год издания оригинала: 1973 LP Ariston #AR/LP 12102
Год переиздания: 1995
Издатель (лейбл): Vinyl Magic
Номер по каталогу: VM 053
Страна исполнителя (группы) : Italy
Аудио кодек: FLAC (*.flac)
Тип рипа: (tracks + .cue)
Битрейт аудио: lossless
Наличие сканов в содержимом раздачи: full scans
Продолжительность: 45:35
Источник (релизер): REDacted
Трэклист:
1 Preludio Al Sole Che Nasce
2 Cercare Di Prendere Il Cielo
3 E La Mia Mente? (Parte 1°)
4 E Poi La Luce (Atto D'Amore)
5 E La Mia Mente? (Parte 2°)
6 Corsa In Macchina
7 Incidente
8 Dialogo Con L'inconscio
9 Dialogo Con La Morte (Parte 1°)
10 Dialogo Con La Morte (Parte 2°)
11 Lotta Tra Morte E Uomo
12 Risveglio
13 Finalmente Apro Gli Occhi
14 Canto Della Donna
15 E La Mia Mente? (Parte 3°)
16 Solo
17 Rinascita

Лог создания рипа

Exact Audio Copy V1.0 beta 3 from 29. August 2011
EAC extraction logfile from 12. August 2013, 19:39
Simon Luca / E la mia mente?
Used drive : ATAPI iHAS324 Y Adapter: 4 ID: 0
Read mode : SecureUtilize accurate stream : YesDefeat audio cache : YesMake use of C2 pointers : No
Read offset correction : 48Overread into Lead-In and Lead-Out : NoFill up missing offset samples with silence : YesDelete leading and trailing silent blocks : NoNull samples used in CRC calculations : YesUsed interface : Native Win32 interface for Win NT & 2000Gap handling : Appended to previous track
Used output format : User Defined EncoderSelected bitrate : 896 kBit/sQuality : HighAdd ID3 tag : NoCommand line compressor : C:\Program Files\Exact Audio Copy\flac.exeAdditional command line options : -8 -V -T "ARTIST=%artist%" -T "TITLE=%title%" -T "ALBUM=%albumtitle%" -T "DATE=%year%" -T "TRACKNUMBER=%tracknr%" -T "GENRE=%genre%" -T "PERFORMER=%albuminterpret%" -T "COMPOSER=%composer%" %haslyrics%--tag-from-file=LYRICS="%lyricsfile%"%haslyrics% -T "ALBUMARTIST=%albumartist%" -T "DISCNUMBER=%cdnumber%" -T "TOTALDISCS=%totalcds%" -T "TOTALTRACKS=%numtracks%" -T "COMMENT=%comment%" %source% -o %dest%
TOC of the extracted CD
Track | Start | Length | Start sector | End sector --------------------------------------------------------- 1 | 0:00.00 | 2:41.05 | 0 | 12079 2 | 2:41.05 | 2:36.57 | 12080 | 23836 3 | 5:17.62 | 0:36.18 | 23837 | 26554 4 | 5:54.05 | 4:01.35 | 26555 | 44664 5 | 9:55.40 | 2:37.72 | 44665 | 56511 6 | 12:33.37 | 4:04.28 | 56512 | 74839 7 | 16:37.65 | 1:14.47 | 74840 | 80436 8 | 17:52.37 | 3:13.65 | 80437 | 94976 9 | 21:06.27 | 2:06.23 | 94977 | 104449 10 | 23:12.50 | 1:07.72 | 104450 | 109546 11 | 24:20.47 | 1:08.65 | 109547 | 114711 12 | 25:29.37 | 5:45.58 | 114712 | 140644 13 | 31:15.20 | 3:43.67 | 140645 | 157436 14 | 34:59.12 | 2:19.38 | 157437 | 167899 15 | 37:18.50 | 0:49.00 | 167900 | 171574 16 | 38:07.50 | 1:36.07 | 171575 | 178781 17 | 39:43.57 | 5:51.38 | 178782 | 205144
Track 1
Filename C:\EAC\01 - Preludio al sole che nasce.wav
Pre-gap length 0:00:02.00
Peak level 68.6 % Extraction speed 2.1 X Track quality 100.0 % Test CRC A2572635 Copy CRC A2572635 Track not present in AccurateRip database Copy OK
Track 2
Filename C:\EAC\02 - Cercare di prendere il cielo.wav
Peak level 67.4 % Extraction speed 2.3 X Track quality 100.0 % Test CRC A8E18AFE Copy CRC A8E18AFE Track not present in AccurateRip database Copy OK
Track 3
Filename C:\EAC\03 - E la mia mente (parte 1°).wav
Peak level 42.5 % Extraction speed 1.4 X Track quality 100.0 % Test CRC 683EA888 Copy CRC 683EA888 Track not present in AccurateRip database Copy OK
Track 4
Filename C:\EAC\04 - E poi la luce (Atto d'amore).wav
Peak level 86.3 % Extraction speed 2.7 X Track quality 100.0 % Test CRC 9385F725 Copy CRC 9385F725 Track not present in AccurateRip database Copy OK
Track 5
Filename C:\EAC\05 - E la mia mente (parte 2°).wav
Peak level 60.7 % Extraction speed 2.7 X Track quality 100.0 % Test CRC 4DA44B5C Copy CRC 4DA44B5C Track not present in AccurateRip database Copy OK
Track 6
Filename C:\EAC\06 - Corsa in macchina.wav
Peak level 81.5 % Extraction speed 2.7 X Track quality 99.9 % Test CRC 205B2811 Copy CRC 205B2811 Track not present in AccurateRip database Copy OK
Track 7
Filename C:\EAC\07 - Incidente.wav
Peak level 60.9 % Extraction speed 2.4 X Track quality 100.0 % Test CRC F8222ECA Copy CRC F8222ECA Track not present in AccurateRip database Copy OK
Track 8
Filename C:\EAC\08 - Dialogo con l'inconscio.wav
Peak level 70.7 % Extraction speed 2.7 X Track quality 99.9 % Test CRC F139F215 Copy CRC F139F215 Track not present in AccurateRip database Copy OK
Track 9
Filename C:\EAC\09 - Dialogo con la Morte (parte 1°).wav
Peak level 77.6 % Extraction speed 3.1 X Track quality 100.0 % Test CRC AD97D978 Copy CRC AD97D978 Track not present in AccurateRip database Copy OK
Track 10
Filename C:\EAC\10 - Dialogo con la Morte (parte 2°).wav
Peak level 68.1 % Extraction speed 2.5 X Track quality 100.0 % Test CRC 86D677CE Copy CRC 86D677CE Track not present in AccurateRip database Copy OK
Track 11
Filename C:\EAC\11 - Lotta tra Morte e Uomo.wav
Peak level 67.9 % Extraction speed 2.7 X Track quality 100.0 % Test CRC 0B5120EC Copy CRC 0B5120EC Track not present in AccurateRip database Copy OK
Track 12
Filename C:\EAC\12 - Risveglio.wav
Peak level 72.8 % Extraction speed 3.9 X Track quality 100.0 % Test CRC 83378CD7 Copy CRC 83378CD7 Track not present in AccurateRip database Copy OK
Track 13
Filename C:\EAC\13 - Finalmente apro gli occhi.wav
Peak level 51.6 % Extraction speed 3.9 X Track quality 100.0 % Test CRC BE8CD02E Copy CRC BE8CD02E Track not present in AccurateRip database Copy OK
Track 14
Filename C:\EAC\14 - Canto della donna.wav
Peak level 45.5 % Extraction speed 3.7 X Track quality 100.0 % Test CRC 759D4EE9 Copy CRC 759D4EE9 Track not present in AccurateRip database Copy OK
Track 15
Filename C:\EAC\15 - E la mia mente (parte 3°).wav
Peak level 51.5 % Extraction speed 2.6 X Track quality 100.0 % Test CRC 4F567625 Copy CRC 4F567625 Track not present in AccurateRip database Copy OK
Track 16
Filename C:\EAC\16 - Solo.wav
Peak level 58.4 % Extraction speed 3.5 X Track quality 100.0 % Test CRC 2B5F35D1 Copy CRC 2B5F35D1 Track not present in AccurateRip database Copy OK
Track 17
Filename C:\EAC\17 - Rinascita.wav
Peak level 49.9 % Extraction speed 4.5 X Track quality 100.0 % Test CRC A81D9453 Copy CRC A81D9453 Track not present in AccurateRip database Copy OK
None of the tracks are present in the AccurateRip database
No errors occurred
End of status report
==== Log checksum 98EB093E08FFCCEF8353EBB4F7E904AE990FBA8BD82B85AE6DF0A3258FF3A2C5 ====
------------------------------------------------------------
Exact Audio Copy V1.0 beta 3 from 29. August 2011
EAC extraction logfile from 12. August 2013, 19:40
Simon Luca / E la mia mente?
Used drive : ATAPI iHAS324 Y Adapter: 4 ID: 0
Read mode : SecureUtilize accurate stream : YesDefeat audio cache : YesMake use of C2 pointers : No
Read offset correction : 48Overread into Lead-In and Lead-Out : NoFill up missing offset samples with silence : YesDelete leading and trailing silent blocks : NoNull samples used in CRC calculations : YesUsed interface : Native Win32 interface for Win NT & 2000Gap handling : Appended to previous track
Used output format : User Defined EncoderSelected bitrate : 896 kBit/sQuality : HighAdd ID3 tag : NoCommand line compressor : C:\Program Files\Exact Audio Copy\flac.exeAdditional command line options : -8 -V -T "ARTIST=%artist%" -T "TITLE=%title%" -T "ALBUM=%albumtitle%" -T "DATE=%year%" -T "TRACKNUMBER=%tracknr%" -T "GENRE=%genre%" -T "PERFORMER=%albuminterpret%" -T "COMPOSER=%composer%" %haslyrics%--tag-from-file=LYRICS="%lyricsfile%"%haslyrics% -T "ALBUMARTIST=%albumartist%" -T "DISCNUMBER=%cdnumber%" -T "TOTALDISCS=%totalcds%" -T "TOTALTRACKS=%numtracks%" -T "COMMENT=%comment%" %source% -o %dest%
TOC of the extracted CD
Track | Start | Length | Start sector | End sector --------------------------------------------------------- 1 | 0:00.00 | 2:41.05 | 0 | 12079 2 | 2:41.05 | 2:36.57 | 12080 | 23836 3 | 5:17.62 | 0:36.18 | 23837 | 26554 4 | 5:54.05 | 4:01.35 | 26555 | 44664 5 | 9:55.40 | 2:37.72 | 44665 | 56511 6 | 12:33.37 | 4:04.28 | 56512 | 74839 7 | 16:37.65 | 1:14.47 | 74840 | 80436 8 | 17:52.37 | 3:13.65 | 80437 | 94976 9 | 21:06.27 | 2:06.23 | 94977 | 104449 10 | 23:12.50 | 1:07.72 | 104450 | 109546 11 | 24:20.47 | 1:08.65 | 109547 | 114711 12 | 25:29.37 | 5:45.58 | 114712 | 140644 13 | 31:15.20 | 3:43.67 | 140645 | 157436 14 | 34:59.12 | 2:19.38 | 157437 | 167899 15 | 37:18.50 | 0:49.00 | 167900 | 171574 16 | 38:07.50 | 1:36.07 | 171575 | 178781 17 | 39:43.57 | 5:51.38 | 178782 | 205144
Track 1
Filename C:\EAC\01 - Preludio al sole che nasce.wav
Pre-gap length 0:00:02.00
Peak level 68.6 % Extraction speed 2.1 X Track quality 100.0 % Test CRC A2572635 Copy CRC A2572635 Track not present in AccurateRip database Copy OK
Track 2
Filename C:\EAC\02 - Cercare di prendere il cielo.wav
Peak level 67.4 % Extraction speed 2.3 X Track quality 100.0 % Test CRC A8E18AFE Copy CRC A8E18AFE Track not present in AccurateRip database Copy OK
Track 3
Filename C:\EAC\03 - E la mia mente (parte 1°).wav
Peak level 42.5 % Extraction speed 1.4 X Track quality 100.0 % Test CRC 683EA888 Copy CRC 683EA888 Track not present in AccurateRip database Copy OK
Track 4
Filename C:\EAC\04 - E poi la luce (Atto d'amore).wav
Peak level 86.3 % Extraction speed 2.7 X Track quality 100.0 % Test CRC 9385F725 Copy CRC 9385F725 Track not present in AccurateRip database Copy OK
Track 5
Filename C:\EAC\05 - E la mia mente (parte 2°).wav
Peak level 60.7 % Extraction speed 2.7 X Track quality 100.0 % Test CRC 4DA44B5C Copy CRC 4DA44B5C Track not present in AccurateRip database Copy OK
Track 6
Filename C:\EAC\06 - Corsa in macchina.wav
Peak level 81.5 % Extraction speed 2.7 X Track quality 99.9 % Test CRC 205B2811 Copy CRC 205B2811 Track not present in AccurateRip database Copy OK
Track 7
Filename C:\EAC\07 - Incidente.wav
Peak level 60.9 % Extraction speed 2.4 X Track quality 100.0 % Test CRC F8222ECA Copy CRC F8222ECA Track not present in AccurateRip database Copy OK
Track 8
Filename C:\EAC\08 - Dialogo con l'inconscio.wav
Peak level 70.7 % Extraction speed 2.7 X Track quality 99.9 % Test CRC F139F215 Copy CRC F139F215 Track not present in AccurateRip database Copy OK
Track 9
Filename C:\EAC\09 - Dialogo con la Morte (parte 1°).wav
Peak level 77.6 % Extraction speed 3.1 X Track quality 100.0 % Test CRC AD97D978 Copy CRC AD97D978 Track not present in AccurateRip database Copy OK
Track 10
Filename C:\EAC\10 - Dialogo con la Morte (parte 2°).wav
Peak level 68.1 % Extraction speed 2.5 X Track quality 100.0 % Test CRC 86D677CE Copy CRC 86D677CE Track not present in AccurateRip database Copy OK
Track 11
Filename C:\EAC\11 - Lotta tra Morte e Uomo.wav
Peak level 67.9 % Extraction speed 2.7 X Track quality 100.0 % Test CRC 0B5120EC Copy CRC 0B5120EC Track not present in AccurateRip database Copy OK
Track 12
Filename C:\EAC\12 - Risveglio.wav
Peak level 72.8 % Extraction speed 3.9 X Track quality 100.0 % Test CRC 83378CD7 Copy CRC 83378CD7 Track not present in AccurateRip database Copy OK
Track 13
Filename C:\EAC\13 - Finalmente apro gli occhi.wav
Peak level 51.6 % Extraction speed 3.9 X Track quality 100.0 % Test CRC BE8CD02E Copy CRC BE8CD02E Track not present in AccurateRip database Copy OK
Track 14
Filename C:\EAC\14 - Canto della donna.wav
Peak level 45.5 % Extraction speed 3.7 X Track quality 100.0 % Test CRC 759D4EE9 Copy CRC 759D4EE9 Track not present in AccurateRip database Copy OK
Track 15
Filename C:\EAC\15 - E la mia mente (parte 3°).wav
Peak level 51.5 % Extraction speed 2.6 X Track quality 100.0 % Test CRC 4F567625 Copy CRC 4F567625 Track not present in AccurateRip database Copy OK
Track 16
Filename C:\EAC\16 - Solo.wav
Peak level 58.4 % Extraction speed 3.5 X Track quality 100.0 % Test CRC 2B5F35D1 Copy CRC 2B5F35D1 Track not present in AccurateRip database Copy OK
Track 17
Filename C:\EAC\17 - Rinascita.wav
Peak level 49.9 % Extraction speed 4.5 X Track quality 100.0 % Test CRC A81D9453 Copy CRC A81D9453 Track not present in AccurateRip database Copy OK
None of the tracks are present in the AccurateRip database
No errors occurred
End of status report
==== Log checksum 0C64B81F8F343329F36226B3128A1E0297A98B1552775FE6890F2AB72B9F3610 ====

Содержание индексной карты (.CUE):

REM GENRE "Progressive Rock"REM DATE 1973REM DISCID F70AAF11REM COMMENT "ExactAudioCopy v1.0b3"PERFORMER "Simon Luca"TITLE "E la mia mente?"FILE "01 - Preludio al sole che nasce.wav" WAVE TRACK 01 AUDIO TITLE "Preludio al sole che nasce" PERFORMER "Simon Luca" INDEX 01 00:00:00FILE "02 - Cercare di prendere il cielo.wav" WAVE TRACK 02 AUDIO TITLE "Cercare di prendere il cielo" PERFORMER "Simon Luca" INDEX 01 00:00:00FILE "03 - E la mia mente (parte 1°).wav" WAVE TRACK 03 AUDIO TITLE "E la mia mente? (parte 1°)" PERFORMER "Simon Luca" INDEX 01 00:00:00FILE "04 - E poi la luce (Atto d'amore).wav" WAVE TRACK 04 AUDIO TITLE "E poi la luce (Atto d'amore)" PERFORMER "Simon Luca" INDEX 01 00:00:00FILE "05 - E la mia mente (parte 2°).wav" WAVE TRACK 05 AUDIO TITLE "E la mia mente? (parte 2°)" PERFORMER "Simon Luca" INDEX 01 00:00:00FILE "06 - Corsa in macchina.wav" WAVE TRACK 06 AUDIO TITLE "Corsa in macchina" PERFORMER "Simon Luca" INDEX 01 00:00:00FILE "07 - Incidente.wav" WAVE TRACK 07 AUDIO TITLE "Incidente" PERFORMER "Simon Luca" INDEX 01 00:00:00FILE "08 - Dialogo con l'inconscio.wav" WAVE TRACK 08 AUDIO TITLE "Dialogo con l'inconscio" PERFORMER "Simon Luca" INDEX 01 00:00:00FILE "09 - Dialogo con la Morte (parte 1°).wav" WAVE TRACK 09 AUDIO TITLE "Dialogo con la Morte (parte 1°)" PERFORMER "Simon Luca" INDEX 01 00:00:00FILE "10 - Dialogo con la Morte (parte 2°).wav" WAVE TRACK 10 AUDIO TITLE "Dialogo con la Morte (parte 2°)" PERFORMER "Simon Luca" INDEX 01 00:00:00FILE "11 - Lotta tra Morte e Uomo.wav" WAVE TRACK 11 AUDIO TITLE "Lotta tra Morte e Uomo" PERFORMER "Simon Luca" INDEX 01 00:00:00FILE "12 - Risveglio.wav" WAVE TRACK 12 AUDIO TITLE "Risveglio" PERFORMER "Simon Luca" INDEX 01 00:00:00FILE "13 - Finalmente apro gli occhi.wav" WAVE TRACK 13 AUDIO TITLE "Finalmente apro gli occhi" PERFORMER "Simon Luca" INDEX 01 00:00:00FILE "14 - Canto della donna.wav" WAVE TRACK 14 AUDIO TITLE "Canto della donna" PERFORMER "Simon Luca" INDEX 01 00:00:00FILE "15 - E la mia mente (parte 3°).wav" WAVE TRACK 15 AUDIO TITLE "E la mia mente? (parte 3°)" PERFORMER "Simon Luca" INDEX 01 00:00:00FILE "16 - Solo.wav" WAVE TRACK 16 AUDIO TITLE "Solo" PERFORMER "Simon Luca" INDEX 01 00:00:00FILE "17 - Rinascita.wav" WAVE TRACK 17 AUDIO TITLE "Rinascita" PERFORMER "Simon Luca" INDEX 01 00:00:00

Лог проверки качества

-----------------------
DON'T MODIFY THIS FILE
-----------------------
PERFORMER: auCDtect Task Manager, ver. 1.6.0 RC1 build 1.6.0.1Copyright (c) 2008-2010 y-soft. All rights reservedhttp://y-soft.org
ANALYZER: auCDtect: CD records authenticity detector, version 0.8.2Copyright (c) 2004 Oleg Berngardt. All rights reserved.Copyright (c) 2004 Alexander Djourik. All rights reserved.
FILE: 17 - Rinascita.flac Size: 27467467 Hash: 3144548F91018B0B260C78CCD2E25BBF Accuracy: -m0 Conclusion: CDDA 54% Signature: 732F259DA7D2A1681F02F8A3C0445E40E2858496FILE: 16 - Solo.flac Size: 7982761 Hash: B7FF94B9C2AB6673A8E41E7D37ECC46C Accuracy: -m0 Conclusion: CDDA 100% Signature: 89AE8FE41A345426E214EB162D5BD1E96B62ABD9FILE: 15 - E la mia mente (parte 3°).flac Size: 3737518 Hash: 3A4155BE57F810D48C74900AA3251D2D Accuracy: -m0 Conclusion: CDDA 100% Signature: 4CDCF0FFE4EFDD9B4F11936136AE034AB34BC8F2FILE: 14 - Canto della donna.flac Size: 10080545 Hash: B130FCBEF20AC8A9CFD44113AFA680F7 Accuracy: -m0 Conclusion: MPEG 80% Signature: F89B9BF539B2C34486A5AF5A1D4A773ADA56DA78FILE: 13 - Finalmente apro gli occhi.flac Size: 16938422 Hash: 1CE66BE9C63C83B1940A3A89CC63167C Accuracy: -m0 Conclusion: CDDA 54% Signature: ABB3EB090ED0B9F0FDD5D86CD1D7163EF28127EFFILE: 12 - Risveglio.flac Size: 29547770 Hash: 5DC3D290B3A08F3273A66490DDE07D47 Accuracy: -m0 Conclusion: CDDA 100% Signature: 5F4ADD48CB0EFD8F2D173708F3B8A4BE1DB0F604FILE: 11 - Lotta tra Morte e Uomo.flac Size: 5351480 Hash: 77DB2420048D7B7FB13105078C88FBA7 Accuracy: -m0 Conclusion: CDDA 100% Signature: 8F618588E541782D10AAE02F7D9D36438E19A70BFILE: 10 - Dialogo con la Morte (parte 2°).flac Size: 5099633 Hash: D95557A992AF634C041AE976DC1E39FD Accuracy: -m0 Conclusion: CDDA 100% Signature: D8FB0FF2E36916B12ED00F4999E0E231ACC79356FILE: 09 - Dialogo con la Morte (parte 1°).flac Size: 8938824 Hash: 6E69B3ACD733ED3328A95B02143603F7 Accuracy: -m0 Conclusion: CDDA 99% Signature: 733D4BE8BA0722D587E61EB256DB16D2A97BBA87FILE: 08 - Dialogo con l'inconscio.flac Size: 14021087 Hash: C8BED81D2F6BB10CA5A908A1D87E0D36 Accuracy: -m0 Conclusion: CDDA 58% Signature: DDAF161B2FDF21FD5E3C21C4339E24583849883EFILE: 07 - Incidente.flac Size: 6137010 Hash: CF78CE1303C10EE1A542DB42E6DEB58D Accuracy: -m0 Conclusion: CDDA 100% Signature: 6DAB3AC1C6EF2C4CC9650BD541E26A99664AB464FILE: 06 - Corsa in macchina.flac Size: 21177456 Hash: 8E012F692122A91A840196AA4B025D8D Accuracy: -m0 Conclusion: CDDA 100% Signature: D49AF655E2FCCEA047197BA2353CA82D05DE9BEEFILE: 05 - E la mia mente (parte 2°).flac Size: 12973654 Hash: B20597D3E12A12F0A49ABFC5A2DA2711 Accuracy: -m0 Conclusion: CDDA 85% Signature: ABE4E374F75F8050D3F7580139AD4213D0491DCDFILE: 04 - E poi la luce (Atto d'amore).flac Size: 19735235 Hash: 75F1D82EB31E33917B53B644366BD8E9 Accuracy: -m0 Conclusion: CDDA 85% Signature: 72AB4696000770E812ECAEA0C2684A655E66611CFILE: 03 - E la mia mente (parte 1°).flac Size: 2825428 Hash: B5AD01AFD946E777464910551B923D26 Accuracy: -m0 Conclusion: MPEG 100% Signature: 5D37A9B23A35EEB00A9421BA4ABD13152372638FFILE: 02 - Cercare di prendere il cielo.flac Size: 11975077 Hash: 65F515D8C6AF0ADC3FC72F7AC7A4099D Accuracy: -m0 Conclusion: MPEG 92% Signature: 38C265E64EC900145C21E18D861C935466D10F42FILE: 01 - Preludio al sole che nasce.flac Size: 12829995 Hash: 39D9F126A6B199514FAB8B4ED041F1BF Accuracy: -m0 Conclusion: MPEG 100% Signature: 8CBEF57A27264608E96C349383734B21CB030C32

Спектрограммы сомнительных треков

Лог CUETools

[CUETools log; Date: 4/29/2018 9:38:54 AM; Version: 2.1.5][CTDB TOCID: _i9k0.KPunuxFahIzh9NPxZqVp8-] found.Track | CTDB Status 1 | (2/2) Accurately ripped 2 | (2/2) Accurately ripped 3 | (2/2) Accurately ripped 4 | (2/2) Accurately ripped 5 | (2/2) Accurately ripped 6 | (2/2) Accurately ripped 7 | (2/2) Accurately ripped 8 | (2/2) Accurately ripped 9 | (2/2) Accurately ripped 10 | (2/2) Accurately ripped 11 | (2/2) Accurately ripped 12 | (2/2) Accurately ripped 13 | (2/2) Accurately ripped 14 | (2/2) Accurately ripped 15 | (2/2) Accurately ripped 16 | (2/2) Accurately ripped 17 | (2/2) Accurately ripped[AccurateRip ID: 001aeb00-01566ab2-f70aaf11] disk not present in database.
Track Peak [ CRC32 ] [W/O NULL] [ LOG ] -- 86.3 [166DBC0E] [E0616AD3] 01 68.6 [A2572635] [AEE054F2] CRC32 02 67.4 [A8E18AFE] [6B828E6E] CRC32 03 42.5 [683EA888] [3FAB7019] CRC32 04 86.3 [9385F725] [F37B5846] CRC32 05 60.7 [4DA44B5C] [D20EC7EC] CRC32 06 81.5 [205B2811] [9A3A4EAB] CRC32 07 60.9 [F8222ECA] [E6ECDFE3] CRC32 08 70.7 [F139F215] [C10CEC6F] CRC32 09 77.6 [AD97D978] [9EE9B71B] CRC32 10 68.1 [86D677CE] [C3E3EB6A] CRC32 11 67.9 [0B5120EC] [7196A37D] CRC32 12 72.8 [83378CD7] [1A28BD2D] CRC32 13 51.6 [BE8CD02E] [53F949BF] CRC32 14 45.5 [759D4EE9] [03D8A2B5] CRC32 15 51.5 [4F567625] [9E014423] CRC32 16 58.4 [2B5F35D1] [720B4D87] CRC32 17 49.9 [A81D9453] [6F216340] CRC32

Замер динамического диапазона

foobar2000 1.3.10 / Замер динамического диапазона (DR) 1.1.1Дата отчёта: 2018-04-29 09:27:36
--------------------------------------------------------------------------------Анализ: Simon Luca / E la mia mente?--------------------------------------------------------------------------------
DR Пики RMS Продолжительность трека--------------------------------------------------------------------------------DR9 -3.26 дБ -16.08 дБ 2:41 01-Preludio al sole che nasceDR11 -3.43 дБ -18.92 дБ 2:37 02-Cercare di prendere il cieloDR10 -7.43 дБ -18.65 дБ 0:36 03-E la mia mente? (parte 1°)DR12 -1.28 дБ -15.40 дБ 4:01 04-E poi la luce (Atto d'amore)DR11 -4.33 дБ -18.91 дБ 2:38 05-E la mia mente? (parte 2°)DR12 -1.78 дБ -16.07 дБ 4:04 06-Corsa in macchinaDR10 -4.30 дБ -16.04 дБ 1:15 07-IncidenteDR12 -3.00 дБ -18.75 дБ 3:14 08-Dialogo con l'inconscioDR12 -2.20 дБ -16.75 дБ 2:06 09-Dialogo con la Morte (parte 1°)DR12 -3.33 дБ -19.01 дБ 1:08 10-Dialogo con la Morte (parte 2°)DR12 -3.36 дБ -18.16 дБ 1:09 11-Lotta tra Morte e UomoDR11 -2.75 дБ -15.60 дБ 5:46 12-RisveglioDR11 -5.74 дБ -21.26 дБ 3:44 13-Finalmente apro gli occhiDR10 -6.84 дБ -20.25 дБ 2:20 14-Canto della donnaDR11 -5.76 дБ -23.75 дБ 0:49 15-E la mia mente? (parte 3°)DR12 -4.66 дБ -18.26 дБ 1:36 16-SoloDR11 -6.03 дБ -20.66 дБ 5:52 17-Rinascita--------------------------------------------------------------------------------
Количество треков: 17Реальные значения DR: DR11
Частота: 44100 ГцКаналов: 2Разрядность: 16Битрейт: 625 кбит/сКодек: FLAC================================================================================
-

Back

Об альбоме (apps79, RYM):

Born as Alberto Favata in Piacenza, Simon Luca was among the respectable figures of Italian Rock through the first half of the 70's.He started his career as Alberto Oro, having already moved to Milan, releasing some singles in a Beat style at the end of the 60's, before launching his first album ''Da tremila anni'' on Victory as Simon Luca. Later he found his own backing band L'Enorme Maria, featuring some great members of the Milanese Rock scene, such as Ricky Belloni of New Trolls and Nuova Idea fame, his brother Gigi, Eugenio Finardi, Alberto Camerini, Lucio "Violino" Fabbri (later a member of Premiata Forneria Marconi), the last drummer of Nuova Idea Flaviano Cuffari, keyboardist Franco Orlandini, harmonica player Fabio Treves and Donatella Bardi.His next album ''Per proteggere l'enorme Maria'' was again in a singer/songwriter style with rockier textures, released on Ariston.The next one and cetainly most interesting effort ''E la mia mente?'', released in 1973 on Aristion, featured again his group L'Enorme Maria.Claudio Ciampini and Claudio Bazzari show up in this record, playing the guitars.
This time Simon Luca shines as an arranger, finding a great balance between his favorite styles, Singer/Songwriter and Progressive Rock.The album consists of 17 short tracks, which are connected to each other, resulting a cohesive Prog/Pop/Rock Opera, with a huge amount of shifting climates and decent instrumental power next to the typical lyrical depth of Luca's works.His voice is harsh but always deeply sensitive and expressive, shining in the vocal parts, usually supported by rockin' rhythmic tunes, acoustic lines or even some jazzy overtones.Links to the sound of JUMBO and I GIGANTI to a lesser extent are evident.The surprise comes from the proggier passages of the album, which sometimes sound even more complex than most of the legends of Italian Prog.The music on these moments is mostly guitar-oriented with tons of complicated switches in tempos but also some nice melodic moves, pretty much in a Hard Prog vein akin to I CALIFFI, I DIK DIK or OSAGE TRIBE, featuring also some tremendous bass work by Gigi Belloni.A couple of tracks offer the angelic female voice of Flavia Baldassari, who had also appeared in Metamorfosi's ''Inferno'' album.Keyboards and piano are used sporadically, delivering either soft instrumental washes or light Classical preludes.The album is quite consistent all the way with a good dose of striking Italian melodies and an amazing ability of rapid style changes, that works pretty well for the most of its part.
Luca's personal music career from this point followed a decline and after some late-70's singles on the Ricordi and Spaghetti labels he moved on to the TV world, composing music for advertising companies and series.He was also involved in the world of comics as an author and he is well-known for his wordlwide charity actions, although he never really abandoned the music industry over the years, as his collaborated with many artists during these years.
''E la mia mente?'' has been reissued by Vinyl Magic, but still remains an unknown album of Italian Prog.A nice release full of distant atmospheres, romantic melodies and dynamic, progressive power, all wrapped up in a well-composed Rock Opera.Warmly recommended.

Состав

Simon Luca - guitar, Solo vocal
Flavia Baldassari - voice
Claudio Bazzari - guitar
Ronnie Jackson - guitar
Claudio Ciampini - guitar
Gigi Belloni - bass
Pepé Gagliardi - piano
Franco Orlandini - hammond
Lucio Fabbri - violin
Fabio Treves - harmonica
Flaviano Cuffari - drums
-


[torrentc.info]_t_5554948.torrent
Торрент: Зарегистрирован ·  [ 2018-05-05 22:57 ] ·  c4605364cd280f49c7e1ad992c12d7deeb1520d2

18 KB

Статус: проверено
Скачан: 0 раз
Размер: 208 MB
Оценка: 
(Голосов: 0)
Сказали спасибо: 0  Спасибо
Похожие темы
[Профиль]    [ЛС]
Показать сообщения:    
Ответить на тему

Текущее время: Сегодня 01:18

Часовой пояс: GMT + 7



Вы не можете начинать темы
Вы не можете отвечать на сообщения
Вы не можете редактировать свои сообщения
Вы не можете удалять свои сообщения
Вы не можете голосовать в опросах
Вы не можете прикреплять файлы к сообщениям
Вы можете скачивать файлы