Непобедимый Человек-паук / Непобедимый Спайдермен / Spider-Man Unlimited / Сезон: 1 / Серии: 1-13 (13) (Патрик Арчибальд / Patrick Archibald) [1999, Приключения, комедия, экранизация комикса, DVDRip-AVC] Dub +Ukr + Original

Ответить на тему
Статистика раздачи [Обновить пиров]
Размер:  6.14 GB   |    Зарегистрирован:  5 месяцев 14 дней   |    Скачан:  0 раз

Полного источника не было: Никогда

 
   
 
 
 
Автор Сообщение

torrentc.info

Создавать темы 04-Май-2018 00:05

[Цитировать]

-Непобедимый Человек-паук / Непобедимый Спайдермен
Spider-Man Unlimited
- Оригинальное название: Spider-Man Unlimited
Русское название: Непобедимый Спайдермэн
Год выхода: 1999
Страна: США
Производство: FOX Kids
Жанр: Приключения, комедия, экранизация комикса
Продолжительность: 20 минут (серия)
Перевод 1: Профессиональный (полное дублирование) [по заказу РЕН-ТВ]
Перевод 2: Профессиональный (многоголосный закадровый) [украинский] [ТакТребаПродакшн по заказу ТРК Украина]-Режиссер: Патрик Арчибальд / Patrick Archibald-Описание: Астронавт Джон Джеймсон, сын Джона Джеймсона, отправляется на точную копию нашей планеты - Анти-Землю. Неожиданно на корабль проникают симбиоты Веном и Карнадж. Питер пытается спасти Джона, но ему это не удается. Через несколько недель по телевизору показывают экстренное сообщение Джона с Анти-Земли. Понимая что ему нужна помощь, Питер разрабатывает усовершенствованный костюм и отправляется на Анти-Землю. После прибытия на Анти-Землю обнаруживает, что половина населения Анти-Земли - зверяне, а правитель этого мира - человек, названный Высшим Разумом. На протяжении всего сериала Питер борется с рыцарями Высшего Разума и симбиотами. Также у него появляются друзья - Наоко Ямада-Джонс, ее сын Шейн и мятежники Джон Джеймсон, Гит Хоскинс, Карен Омейли, Дарвуд Бромли и Гоблин (Гектор Джонс).-Доп. Информация: В данном рипе более качественно устранены проблемы с интерлейсом Источник: Torrentc с раздачей SerGoLeOne, сохранен оригинальный цвет DVD, почищена картинка от шумов и блочности.
Спасибо SerGoLeOne за русский звук, Hulk1987 за украинский звук.-[url=tracker.php?nm=spider%20unlimited]Ссылка на остальные раздачи[/url] | Сэмпл-Качество: DVDRip-AVC [Источник: Torrentc Clear Vision DVDs]
Авторы рипа: SOFCJ [энкод видео], Urotsuki [фильтрация видео]
Формат файла: MKV
Видео: x264, 8bit, 720x576@768x576, (4:3), 25fps, ~2900 kbps
Аудио:
  • русская: Dolby AC3 2ch 48000Hz stereo 192Kbps
  • украинская: MP3 2ch 44100Hz stereo 192Kbps [1-5, 8-11, 13 серии]
  • оригинал: Dolby AC3 2ch 48000Hz stereo 192Kbps

Список серий

01. Worlds Apart (part 1) (Разделенные миры часть 1)
02. Worlds Apart (part 2) (Разделенные миры часть 2)
03. Where Evil Nests (Где обитает зло)
04. Deadly Choices (Смертельные номера)
05. Steel Cold Heart (Стальное сердце)
06. Enter The Hunter! (Охотник приходит)
07. Cry Vulture (Крики грифа)
08. Ill-Met By Moonlight (Заложник лунного света)
09. Sustenance (В тисках жизни)
10. Matters Of The Heart (Дела сердечные)
11. One Is The Loneliest Number (Один - грустное число)
12. Sins Of The Fathers (Грехи отцов)
13. Destiny Unleashed Part 1 (Судьба слепа Часть 1)

MediaInfo

Complete name : [SOFCJ-Raws] Spider-Man Unlimited 1x03 Where Evil Nests [DVDRip].mkvFormat : MatroskaFormat version : Version 4 / Version 2File size : 515 MiBDuration : 20 min 22 sOverall bit rate : 3 532 kb/sMovie name : [SOFCJ-Raws] Spider-Man Unlimited 1x03 Where Evil Nests [DVDRip]Encoded date : UTC 2018-05-02 19:59:15Writing application : mkvmerge v8.3.0 ('Over the Horizon') 64bitWriting library : libebml v1.3.1 + libmatroska v1.4.2
VideoID : 1Format : AVCFormat/Info : Advanced Video CodecFormat profile : High@L4.1Format settings : CABAC / 9 Ref FramesFormat settings, CABAC : YesFormat settings, ReFrames : 9 framesCodec ID : V_MPEG4/ISO/AVCDuration : 20 min 22 sBit rate : 2 953 kb/sWidth : 720 pixelsHeight : 576 pixelsDisplay aspect ratio : 4:3Frame rate mode : ConstantFrame rate : 25.000 FPSStandard : PALColor space : YUVChroma subsampling : 4:2:0Bit depth : 8 bitsScan type : ProgressiveBits/(Pixel*Frame) : 0.285Stream size : 430 MiB (84%)Writing library : x264 core 155 r2901 7d0ff22Encoding settings : cabac=1 / ref=9 / deblock=1:1:-1 / analyse=0x3:0x113 / me=umh / subme=9 / psy=1 / psy_rd=1.00:0.00 / mixed_ref=1 / me_range=32 / chroma_me=1 / trellis=2 / 8x8dct=1 / cqm=0 / deadzone=21,11 / fast_pskip=1 / chroma_qp_offset=-2 / threads=12 / lookahead_threads=2 / sliced_threads=0 / nr=0 / decimate=1 / interlaced=0 / bluray_compat=0 / constrained_intra=0 / bframes=9 / b_pyramid=2 / b_adapt=2 / b_bias=0 / direct=1 / weightb=1 / open_gop=0 / weightp=2 / keyint=250 / keyint_min=25 / scenecut=40 / intra_refresh=0 / rc=crf / mbtree=0 / crf=16.0 / qcomp=0.72 / qpmin=0 / qpmax=69 / qpstep=4 / ip_ratio=1.40 / pb_ratio=1.30 / aq=1:1.00Language : EnglishDefault : YesForced : NoColor range : LimitedColor primaries : BT.601 PALTransfer characteristics : BT.470 System B/GMatrix coefficients : BT.470 System B/G
Audio #1ID : 2Format : AC-3Format/Info : Audio Coding 3Codec ID : A_AC3Duration : 20 min 22 sBit rate mode : ConstantBit rate : 192 kb/sChannel(s) : 2 channelsChannel positions : Front: L RSampling rate : 48.0 kHzFrame rate : 31.250 FPS (1536 SPF)Bit depth : 16 bitsCompression mode : LossyStream size : 28.0 MiB (5%)Title : DubLanguage : RussianService kind : Complete MainDefault : YesForced : No
Audio #2ID : 3Format : MPEG AudioFormat version : Version 1Format profile : Layer 3Codec ID : A_MPEG/L3Codec ID/Hint : MP3Duration : 20 min 22 sBit rate mode : ConstantBit rate : 192 kb/sChannel(s) : 2 channelsSampling rate : 44.1 kHzFrame rate : 38.281 FPS (1152 SPF)Compression mode : LossyStream size : 28.0 MiB (5%)Title : MVOLanguage : UkrainianDefault : NoForced : No
Audio #3ID : 4Format : AC-3Format/Info : Audio Coding 3Codec ID : A_AC3Duration : 20 min 22 sBit rate mode : ConstantBit rate : 192 kb/sChannel(s) : 2 channelsChannel positions : Front: L RSampling rate : 48.0 kHzFrame rate : 31.250 FPS (1536 SPF)Bit depth : 16 bitsCompression mode : LossyStream size : 28.0 MiB (5%)Language : EnglishService kind : Complete MainDefault : NoForced : No


[torrentc.info]_t_5553240.torrent
Торрент: Зарегистрирован ·  [ 2018-05-04 00:03 ] ·  18e89ebc36b892d8817d2c50fa442ae1daa38f5c

32 KB

Статус: проверено
Скачан: 0 раз
Размер: 6.14 GB
Оценка: 
(Голосов: 0)
Сказали спасибо: 0  Спасибо
Похожие темы
[Профиль]    [ЛС]
Показать сообщения:    
Ответить на тему

Текущее время: Сегодня 01:19

Часовой пояс: GMT + 7



Вы не можете начинать темы
Вы не можете отвечать на сообщения
Вы не можете редактировать свои сообщения
Вы не можете удалять свои сообщения
Вы не можете голосовать в опросах
Вы не можете прикреплять файлы к сообщениям
Вы можете скачивать файлы