В поисках приключений: Шри-Ланка (Всеволод Аравин) [2005, Россия, документальный, DVD9]

Ответить на тему
Статистика раздачи [Обновить пиров]
Размер:  7.64 GB   |    Зарегистрирован:  4 месяца 19 дней   |    Скачан:  0 раз

Полного источника не было: Никогда

 
   
 
 
 
Автор Сообщение

torrentc.info

Создавать темы 04-Май-2018 00:04

[Цитировать]

В поисках приключений: Шри-Ланка
Страна: Россия
Жанр: документальный
Год выхода: 2005
Продолжительность: 03:36:00
Перевод: Не требуется
Субтитры: нет
Оригинальная аудиодорожка: русская
Режиссер: Всеволод Аравин
В ролях: Михаил Кожухов
Описание: «День на этом острове всегда равен ночи. Главный город лежит в прекрасной долине, у подножия самой высокой в мире горы, куда ступил Адам, когда был изгнан из рая.
Здесь добывают рубины и другие драгоценные камни, и повсюду растут невиданной красоты деревья, а также кедры и кокосовые пальмы» — так описывал путешествие на Цейлон искатель приключений Синдбад-мореход… «Мы были в Шри-Ланке за несколько дней до того, как на остров обрушилась страшная беда — цунами. В моем отчете о поездке на благословенный остров, как сами ланкийцы называют свою родину, вы увидите Цейлон таким, каким он был до этого и каким вновь станет уже очень скоро. Уже не один десяток дет Цейлон как магнит притягивает миллионы людей, которые мечтают погреться на здешних пляжах, восхититься диковинными храмами, окунуться в плотный поток яркой и такой непохожей на нашу жизнь» — Михаил Кожухов.
Дополнительные материалы: Смотрите на DVD
Меню: есть, статичное, озвученное
Тип релиза: DVD9
Формат файла: DVD-Video
Видео: PAL 4:3 (720x576(0.442)) MPEG Video, 25,000 кадр/сек, 4579 Кбит/сек
Аудио: Russian (Dolby AC-3, 2 ch) 192 Кбит/сек, 48.0 КГц

MediaInfo

Общее
Полное имя : SHRI_LANKA\VIDEO_TS\VTS_02_1.VOB
Формат файла : MPEG-PS
Размер файла : 1024 Мбайт
Продолжительность : 29 м. 24 с.
Режим общего битрейта : Переменный
Общий поток : 4868 Кбит/сек
Видео
Идентификатор : 224 (0xE0)
Формат файла : MPEG Video
Версия формата : Version 2
Профиль формата : Main@Main
Настройки формата : CustomMatrix / BVOP
Параметр BVOP формата : Да
Параметр матрицы формата : Выборочная
Параметр GOP формата : M=3, N=12
Структура изображения : Frame
Продолжительность : 29 м. 24 с.
Вид битрейта : Переменный
Битрейт : 4579 Кбит/сек
Максимальный битрейт : 8500 Кбит/сек
Ширина : 720 пикселей
Высота : 576 пикселей
Соотношение сторон : 4:3
Частота кадров : 25,000 кадров/сек
Стандарт вещания : PAL
Цветовое пространство : YUV
Субдискретизация насыщенности : 4:2:0
Битовая глубина : 8 бит
Тип развёртки : Чересстрочная
Порядок развёртки : Верхнее поле первое
Метод сжатия : С потерями
Бит/(Пиксели*Кадры) : 0.442
Временной код первого кадра : 00:00:00:00
Оригинал временного кода : Group of pictures header
GOP, открыто/закрыто : Открыто
GOP, открыто/закрыто на первом кадре : Закрыто
Размер потока : 963 Мбайт (94%)
Аудио
Идентификатор : 189 (0xBD)-128 (0x80)
Формат файла : AC-3
Формат файла/Информация : Audio Coding 3
Режим смешивания : DVD-Video
Продолжительность : 29 м. 24 с.
Вид битрейта : Постоянный
Битрейт : 192 Кбит/сек
Каналы : 2 канала
Расположение каналов : Front: L R
Частота : 48,0 КГц
Частота кадров : 31,250 кадров/сек (1536 SPF)
Битовая глубина : 16 бит
Метод сжатия : С потерями
Размер потока : 40,4 Мбайт (4%)
ServiceKind/String : Complete Main

Скриншоты меню

Скриншоты



[torrentc.info]_t_139369.torrent
Торрент: Зарегистрирован ·  [ 2018-05-04 00:03 ] ·  706a78fb07fc5b0c73092a9e7a9446cbedcef224

22 KB

Статус: проверено
Скачан: 0 раз
Размер: 7.64 GB
Оценка: 
(Голосов: 0)
Сказали спасибо: 0  Спасибо
Похожие темы
[Профиль]    [ЛС]
Показать сообщения:    
Ответить на тему

Текущее время: Сегодня 17:27

Часовой пояс: GMT + 7



Вы не можете начинать темы
Вы не можете отвечать на сообщения
Вы не можете редактировать свои сообщения
Вы не можете удалять свои сообщения
Вы не можете голосовать в опросах
Вы не можете прикреплять файлы к сообщениям
Вы можете скачивать файлы