Спартак Мишулин. Умеющий летать (Андрей Грачев) [2006, Документальный, биография, культура, история, IPTVRip]

Ответить на тему
Статистика раздачи [Обновить пиров]
Размер:  656 MB   |    Зарегистрирован:  20 дней   |    Скачан:  0 раз

Полного источника не было: Никогда

 
   
 
 
 
Автор Сообщение

torrentc.info

Создавать темы 02-Май-2018 21:51

[Цитировать]

Спартак Мишулин. Умеющий летать
[img=right]https://c.radikal.ru/c17/1803/56/edc8b123172a.jpg[/img]
Дата/Год выхода: 2006
Страна: Россия, Телеканал "Россия"
Жанр: Документальный, биография, культура, история
Продолжительность: 00:43:49
Перевод: Не требуется
Русские субтитры: нет
Режиссер: Андрей Грачев
Описание: Мало кто знает, что Спартак Мишулин представил публике свою биографию в виде большого количества небылиц и выдумок, которые он сам же пересказывал своим друзьям. Ходят легенды о точной дате и месте рождения актёра, его юности, начале творческой деятельности. Спартак Мишулин более 35 лет играл роль Карлсона. Вырастали зрители, приводили в театр своих детей, потом внуков, а он все играл. Много замечательных образов он создал в кино, на телевидении, в театре. Все они - ироничные, яркие, точные. При этом сам артист далеко не всегда был похож на своих героев.
качество: IPTVRip
формат: MKV
Видео: MPEG-4 AVC, 1900 Кбит/с, 704x528
Аудио: AC3, 2 ch, 192 Кбит/с

MediaInfo

Полное имя : I:\Документалка 3\Спартак Мишулин.Умеющий летать.20006.IPTVRip.mkvФормат файла : MatroskaВерсия формата : Version 2Размер файла : 656 МбайтПродолжительность : 43 м. 49 с.Общий поток : 2094 Кбит/секДата кодирования : UTC 2017-11-02 06:38:20Программа кодирования : mkvmerge v7.8.0 ('River Man') 32bit built on Apr 3 2015 12:11:22Библиотека кодирования : libebml v1.3.1 + libmatroska v1.4.2
ВидеоИдентификатор : 1Формат файла : AVCФормат файла/Информация : Advanced Video CodecПрофиль формата : High@L4.1Параметр CABAC формата : ДаПараметр ReFrames формата : 16 кадровИдентификатор кодека : V_MPEG4/ISO/AVCПродолжительность : 43 м. 49 с.Битрейт : 1900 Кбит/секШирина : 704 пикселяВысота : 528 пикселейСоотношение сторон : 4:3Режим частоты кадров : ПостоянныйЧастота кадров : 25,000 кадров/секЦветовое пространство : YUVСубдискретизация насыщенности : 4:2:0Битовая глубина : 8 битТип развёртки : ПрогрессивнаяБит/(Пиксели*Кадры) : 0.204Размер потока : 583 Мбайт (89%)Библиотека кодирования : x264 core 146 r2538 121396cНастройки программы : cabac=1 / ref=16 / deblock=1:0:0 / analyse=0x3:0x113 / me=umh / subme=10 / psy=1 / psy_rd=1.00:0.00 / mixed_ref=1 / me_range=32 / chroma_me=1 / trellis=2 / 8x8dct=1 / cqm=0 / deadzone=21,11 / fast_pskip=0 / chroma_qp_offset=-2 / threads=12 / lookahead_threads=2 / sliced_threads=0 / nr=0 / decimate=0 / interlaced=0 / bluray_compat=0 / constrained_intra=0 / bframes=8 / b_pyramid=2 / b_adapt=2 / b_bias=0 / direct=3 / weightb=1 / open_gop=0 / weightp=2 / keyint=250 / keyint_min=25 / scenecut=40 / intra_refresh=0 / rc_lookahead=60 / rc=2pass / mbtree=1 / bitrate=1900 / ratetol=1.0 / qcomp=0.60 / qpmin=10 / qpmax=51 / qpstep=4 / cplxblur=20.0 / qblur=0.5 / vbv_maxrate=14000 / vbv_bufsize=14000 / nal_hrd=none / filler=0 / ip_ratio=1.40 / aq=1:0.80Default : ДаForced : Нет
АудиоИдентификатор : 2Формат файла : AC-3Формат файла/Информация : Audio Coding 3Расширение режима : CM (complete main)Параметр Endianness формата : BigИдентификатор кодека : A_AC3Продолжительность : 43 м. 49 с.Вид битрейта : ПостоянныйБитрейт : 192 Кбит/секКаналы : 2 каналаРасположение каналов : Front: L RЧастота : 48,0 КГцЧастота кадров : 31,250 кадров/сек (1536 spf)Метод сжатия : С потерямиРазмер потока : 60,2 Мбайт (9%)Default : ДаForced : Нет


[torrentc.info]_t_5540018.torrent
Торрент: Зарегистрирован ·  [ 2018-05-02 21:50 ] ·  570547c6de6258024f95a77dafcd8cb4b2bd4dd8

7 KB

Статус: проверено
Скачан: 0 раз
Размер: 656 MB
Оценка: 
(Голосов: 0)
Сказали спасибо: 0  Спасибо
Похожие темы
[Профиль]    [ЛС]
Показать сообщения:    
Ответить на тему

Текущее время: Сегодня 12:14

Часовой пояс: GMT + 7



Вы не можете начинать темы
Вы не можете отвечать на сообщения
Вы не можете редактировать свои сообщения
Вы не можете удалять свои сообщения
Вы не можете голосовать в опросах
Вы не можете прикреплять файлы к сообщениям
Вы можете скачивать файлы