(Darkwave / Modern Classical / Ambient) [CD] Chaos Research - Three - 2016, FLAC (image+.cue), lossless

Ответить на тему
Статистика раздачи [Обновить пиров]
Размер:  399 MB   |    Зарегистрирован:  7 месяцев 11 дней   |    Скачан:  0 раз

Полного источника не было: Никогда

Личеров:  1  [  0 KB/s  ]   Подробная статистика скачивающих
 
   
 
 
 
Автор Сообщение

torrentc.info

Создавать темы 29-Апр-2018 21:51

[Цитировать]

Chaos Research / Three
Жанр: Darkwave / Modern Classical / Ambient
Носитель: CD
Год издания: 2016
Издатель (лейбл): Gothic Music Records
Номер по каталогу: GMR020
Страна исполнителя (группы): Finland
Аудиокодек: FLAC (*.flac)
Тип рипа: image+.cue
Битрейт аудио: lossless
Продолжительность: 00:47:09
Источник (релизер): свой рип
Наличие сканов в содержимом раздачи: да
Трек-лист:
01. Kuivila. (06:45)
02. Guilt. (06:56)
03. My Queen. (04:27)
04. Morgaine. (04:42)
05. World 17 Inches Wide. (04:59)
06. Our Eyes Fixed Forwards, We March Towards The Impending Doom. (05:32)
07. Trusting No-one. (05:33)
08. Traumatizing. (03:35)
09. Raising Steam. (04:40)- -

Лог создания рипа

Exact Audio Copy V1.1 from 23. June 2015
EAC extraction logfile from 17. February 2018, 3:15
Chaos Research / Three
Used drive : PIONEER DVD-RW DVR-111D Adapter: 1 ID: 0
Read mode : SecureUtilize accurate stream : YesDefeat audio cache : YesMake use of C2 pointers : No
Read offset correction : 48Overread into Lead-In and Lead-Out : NoFill up missing offset samples with silence : YesDelete leading and trailing silent blocks : NoNull samples used in CRC calculations : YesUsed interface : Native Win32 interface for Win NT & 2000
Used output format : User Defined EncoderSelected bitrate : 1024 kBit/sQuality : HighAdd ID3 tag : NoCommand line compressor : D:\Flac\flac.exeAdditional command line options : -V -8 -T "Date=%year%" -T "Genre=%genre%" %source%
TOC of the extracted CD
Track | Start | Length | Start sector | End sector --------------------------------------------------------- 1 | 0:00.00 | 6:45.00 | 0 | 30374 2 | 6:45.00 | 6:56.00 | 30375 | 61574 3 | 13:41.00 | 4:27.00 | 61575 | 81599 4 | 18:08.00 | 4:42.00 | 81600 | 102749 5 | 22:50.00 | 4:59.00 | 102750 | 125174 6 | 27:49.00 | 5:32.17 | 125175 | 150091 7 | 33:21.17 | 5:33.16 | 150092 | 175082 8 | 38:54.33 | 3:35.00 | 175083 | 191207 9 | 42:29.33 | 4:39.63 | 191208 | 212195
Range status and errors
Selected range
Filename D:\Rips from Dаrkmind\Chaos Research - Three.wav
Peak level 97.7 % Extraction speed 6.6 X Range quality 99.9 % Test CRC F127065D Copy CRC F127065D Copy OK
No errors occurred
AccurateRip summary
Track 1 not present in databaseTrack 2 not present in databaseTrack 3 not present in databaseTrack 4 not present in databaseTrack 5 not present in databaseTrack 6 not present in databaseTrack 7 not present in databaseTrack 8 not present in databaseTrack 9 not present in database
None of the tracks are present in the AccurateRip database
End of status report
---- CUETools DB Plugin V2.1.6
[CTDB TOCID: 8zG5IIh7TGIYL__A3Q4Rl5bri0M-] foundSubmit result: 8zG5IIh7TGIYL__A3Q4Rl5bri0M- has been confirmedTrack | CTDB Status 1 | (1/1) Accurately ripped 2 | (1/1) Accurately ripped 3 | (1/1) Accurately ripped 4 | (1/1) Accurately ripped 5 | (1/1) Accurately ripped 6 | (1/1) Accurately ripped 7 | (1/1) Accurately ripped 8 | (1/1) Accurately ripped 9 | (1/1) Accurately ripped
==== Log checksum 93643A6305073802A51ADDD2AF9F7730CEC206C6ECACE5286984B48CBE672AA8 ====

Лог проверки качества

-----------------------
DON'T MODIFY THIS FILE
-----------------------
PERFORMER: auCDtect Task Manager, ver. 1.6.0 RC1 build 1.6.0.1Copyright (c) 2008-2010 y-soft. All rights reservedhttp://y-soft.org
ANALYZER: auCDtect: CD records authenticity detector, version 0.8.2Copyright (c) 2004 Oleg Berngardt. All rights reserved.Copyright (c) 2004 Alexander Djourik. All rights reserved.
FILE: Chaos Research - Three.flac Size: 264459201 Hash: 5381103DF28F5860EB12559F88F702D8 Accuracy: -m0 Conclusion: CDDA 100% Signature: E36A50AD57943D3B3266021427DDE517E1F426C4
-

Доп. информация

Limited edition of 333 hand-numbered copies.

Состав

Sanna Keltaniemi - lyrics and vocals.
Marko Hautamäki - music and instruments.


[torrentc.info]_t_5552333.torrent
Торрент: Зарегистрирован ·  [ 2018-04-29 21:46 ] ·  58862f480ce690ac1fecf15d11d4278f7b3a7910

17 KB

Статус: проверено
Скачан: 0 раз
Размер: 399 MB
Оценка: 
(Голосов: 0)
Сказали спасибо: 0  Спасибо
Похожие темы
[Профиль]    [ЛС]
Показать сообщения:    
Ответить на тему

Текущее время: Сегодня 09:26

Часовой пояс: GMT + 7



Вы не можете начинать темы
Вы не можете отвечать на сообщения
Вы не можете редактировать свои сообщения
Вы не можете удалять свои сообщения
Вы не можете голосовать в опросах
Вы не можете прикреплять файлы к сообщениям
Вы можете скачивать файлы