(Darkwave / Ethereal / Neoclassical) In Auroram - Discography (2 CD) - 2009-2016, FLAC (image+.cue), lossless

Ответить на тему
Статистика раздачи [Обновить пиров]
Размер:  946 MB   |    Зарегистрирован:  1 месяц 24 дня   |    Скачан:  0 раз
Сидеров:  1  [  0 KB/s  ]   Подробная статистика скачивающих
 
   
 
 
 
Автор Сообщение

torrentc.info

Создавать темы 29-Апр-2018 21:51

[Цитировать]

-In Auroram-- --Жанр: Darkwave / Ethereal / Neoclassical
Страна: Brazil
Аудиокодек: FLAC (*.flac)
Тип рипа: image+.cue
Битрейт аудио: lossless
Продолжительность: 02:12:31
Наличие сканов в содержимом раздачи: да
--Состав:
Asteria - vocals & lyrics.
Ricardo Santos - all instruments.
-- -

2009 - When Daylight Fades

Издатель (лейбл): Wave Records
Номер по каталогу: W019
Продолжительность: 01:14:39
Источник (релизер): свой рип
Трек-лист:
01. When Daylight Fades. (06:28)
02. Time. (04:55)
03. In Reconditum Spiritum. (07:49)
04. Frost Storm. (07:08)
05. Concentus. (05:16)
06. Turva Aurora. (07:09)
07. My Anguish. (06:39)
08. Untrue Bliss. (07:05)
09. Peace Or Sword? (03:21)
10. A Lifetime Of Trials. (03:53)
11. Send Me A Confort. (03:35)
12. Mortuus Virgo. (03:48)
13. Over The Ashes. (04:17)
14. Holy Sin. (03:16)

Лог создания рипа

Exact Audio Copy V1.0 beta 3 from 29. August 2011
EAC extraction logfile from 30. June 2014, 14:20
In Auroram / When Daylight Fades
Used drive : PIONEER DVD-RW DVR-111D Adapter: 0 ID: 0
Read mode : SecureUtilize accurate stream : YesDefeat audio cache : YesMake use of C2 pointers : No
Read offset correction : 48Overread into Lead-In and Lead-Out : NoFill up missing offset samples with silence : YesDelete leading and trailing silent blocks : NoNull samples used in CRC calculations : YesUsed interface : Native Win32 interface for Win NT & 2000
Used output format : User Defined EncoderSelected bitrate : 1024 kBit/sQuality : HighAdd ID3 tag : NoCommand line compressor : D:\Flac\flac.exeAdditional command line options : -V -8 -T "Date=%year%" -T "Genre=%genre%" %source%
TOC of the extracted CD
Track | Start | Length | Start sector | End sector --------------------------------------------------------- 1 | 0:00.00 | 6:27.61 | 0 | 29085 2 | 6:27.61 | 4:55.25 | 29086 | 51235 3 | 11:23.11 | 7:49.30 | 51236 | 86440 4 | 19:12.41 | 7:07.53 | 86441 | 118518 5 | 26:20.19 | 5:16.11 | 118519 | 142229 6 | 31:36.30 | 7:09.13 | 142230 | 174417 7 | 38:45.43 | 6:39.07 | 174418 | 204349 8 | 45:24.50 | 7:04.41 | 204350 | 236190 9 | 52:29.16 | 3:20.60 | 236191 | 251250 10 | 55:50.01 | 3:53.20 | 251251 | 268745 11 | 59:43.21 | 3:34.51 | 268746 | 284846 12 | 63:17.72 | 3:48.27 | 284847 | 301973 13 | 67:06.24 | 4:16.57 | 301974 | 321230 14 | 71:23.06 | 3:15.72 | 321231 | 335927
Range status and errors
Selected range
Filename D:\Rips from Dаrkmind\In Auroram - When Daylight Fades.wav
Peak level 97.7 % Extraction speed 7.8 X Range quality 99.9 % Test CRC 8C4CF885 Copy CRC 8C4CF885 Copy OK
No errors occurred
AccurateRip summary
Track 1 accurately ripped (confidence 1) [9397DC31] (AR v2)Track 2 accurately ripped (confidence 1) [E64E055D] (AR v2)Track 3 accurately ripped (confidence 1) [EEEEE3D8] (AR v2)Track 4 accurately ripped (confidence 1) [E6A2A163] (AR v2)Track 5 accurately ripped (confidence 1) [F5058190] (AR v2)Track 6 accurately ripped (confidence 2) [C28E4EED] (AR v2)Track 7 accurately ripped (confidence 1) [C22646B4] (AR v2)Track 8 accurately ripped (confidence 1) [CB0891F2] (AR v2)Track 9 accurately ripped (confidence 1) [8170D035] (AR v2)Track 10 accurately ripped (confidence 1) [E6F6003A] (AR v2)Track 11 accurately ripped (confidence 1) [CCB3D4C8] (AR v2)Track 12 accurately ripped (confidence 1) [3BBAA3E0] (AR v2)Track 13 accurately ripped (confidence 1) [35AE1C79] (AR v2)Track 14 accurately ripped (confidence 1) [40D7E903] (AR v2)
All tracks accurately ripped
End of status report
---- CUETools DB Plugin V2.1.3
[CTDB TOCID: Sk6ysHckHKGyRcrJ1Uk20XfyMhc-] found, Submit result: Sk6ysHckHKGyRcrJ1Uk20XfyMhc- has been confirmed[b528ee7e] (2/2) Accurately ripped

Лог проверки качества

-----------------------
DON'T MODIFY THIS FILE
-----------------------
PERFORMER: auCDtect Task Manager, ver. 1.6.0 RC1 build 1.6.0.1Copyright (c) 2008-2010 y-soft. All rights reservedhttp://y-soft.org
ANALYZER: auCDtect: CD records authenticity detector, version 0.8.2Copyright (c) 2004 Oleg Berngardt. All rights reserved.Copyright (c) 2004 Alexander Djourik. All rights reserved.
FILE: In Auroram - When Daylight Fades.flac Size: 431596902 Hash: D70DAFC694F4E39CC11C78713FAE4B4D Accuracy: -m0 Conclusion: CDDA 62% Signature: CF4FB226F5254E7F9ED2395BA9FB9E6B4A192967
-

Credits

Recorded between September 2008 and March 2009 at Wolf Wind Music.
Produced by Ricardo Santos.
All music composed by Ricardo Santos.
All lyrics composed by Astéria except track 2 composed by Ricardo Santos.

2016 - Fenestrae

Издатель (лейбл): Wave Records
Номер по каталогу: W061
Продолжительность: 00:57:52
Источник (релизер): свой рип
Трек-лист:
01. Simulacrum. (02:56)
02. Abstract Mundi. (04:45)
03. Ocaso Horae. (04:59)
04. Light And Wind. (05:42)
05. Horizon. (05:17)
06. Fenestrae. (03:37)
07. Getting Myself. (04:43)
08. Throught The Windows Of My Eyes. (04:36)
09. Lost. (04:37)
10. Dreaminess. (07:20)
11. My Now. (05:42)
12. μοναξιά. (03:38)

Лог создания рипа

Exact Audio Copy V1.1 from 23. June 2015
EAC extraction logfile from 10. February 2018, 16:39
In Auroram / Fenestrae
Used drive : PIONEER DVD-RW DVR-111D Adapter: 1 ID: 0
Read mode : SecureUtilize accurate stream : YesDefeat audio cache : YesMake use of C2 pointers : No
Read offset correction : 48Overread into Lead-In and Lead-Out : NoFill up missing offset samples with silence : YesDelete leading and trailing silent blocks : NoNull samples used in CRC calculations : YesUsed interface : Native Win32 interface for Win NT & 2000
Used output format : User Defined EncoderSelected bitrate : 1024 kBit/sQuality : HighAdd ID3 tag : NoCommand line compressor : D:\Flac\flac.exeAdditional command line options : -V -8 -T "Date=%year%" -T "Genre=%genre%" %source%
TOC of the extracted CD
Track | Start | Length | Start sector | End sector --------------------------------------------------------- 1 | 0:00.00 | 2:56.01 | 0 | 13200 2 | 2:56.01 | 4:45.17 | 13201 | 34592 3 | 7:41.18 | 4:58.55 | 34593 | 56997 4 | 12:39.73 | 5:42.01 | 56998 | 82648 5 | 18:21.74 | 5:17.20 | 82649 | 106443 6 | 23:39.19 | 3:36.59 | 106444 | 122702 7 | 27:16.03 | 4:43.16 | 122703 | 143943 8 | 31:59.19 | 4:36.01 | 143944 | 164644 9 | 36:35.20 | 4:37.27 | 164645 | 185446 10 | 41:12.47 | 7:19.57 | 185447 | 218428 11 | 48:32.29 | 5:41.64 | 218429 | 244067 12 | 54:14.18 | 3:38.15 | 244068 | 260432
Range status and errors
Selected range
Filename D:\Rips from Dаrkmind\In Auroram - Fenestrae.wav
Peak level 100.0 % Extraction speed 2.6 X Range quality 100.0 % Test CRC 9530F3BF Copy CRC 9530F3BF Copy OK
No errors occurred
AccurateRip summary
Track 1 not present in databaseTrack 2 not present in databaseTrack 3 not present in databaseTrack 4 not present in databaseTrack 5 not present in databaseTrack 6 not present in databaseTrack 7 not present in databaseTrack 8 not present in databaseTrack 9 not present in databaseTrack 10 not present in databaseTrack 11 not present in databaseTrack 12 not present in database
None of the tracks are present in the AccurateRip database
End of status report
---- CUETools DB Plugin V2.1.6
[CTDB TOCID: UbkruyZhtVFY9mRDVkExKrklgck-] disk not present in databaseSubmit result: UbkruyZhtVFY9mRDVkExKrklgck- has been uploaded
==== Log checksum 4CCBFE79F236FA3A9E40796F598823668457087F7A378DD54320D64A8DA6F217 ====

Лог проверки качества

-----------------------
DON'T MODIFY THIS FILE
-----------------------
PERFORMER: auCDtect Task Manager, ver. 1.6.0 RC1 build 1.6.0.1Copyright (c) 2008-2010 y-soft. All rights reservedhttp://y-soft.org
ANALYZER: auCDtect: CD records authenticity detector, version 0.8.2Copyright (c) 2004 Oleg Berngardt. All rights reserved.Copyright (c) 2004 Alexander Djourik. All rights reserved.
FILE: In Auroram - Fenestrae.flac Size: 313634532 Hash: 09DFFB05C43C978B749807B80CB7027B Accuracy: -m0 Conclusion: CDDA 100% Signature: 0CBB6F00D81109C29CF801599ED0FD445B0B8EC3
-

Доп. информация

Limited edition of 500 hand-numbered copies. Released in a digisleeve with a 4-page booklet.

Credits

Recorded between VI/MMXIV & X/MMXIV at Wolf Wind Music.
Produced by Ricardo Santos.
All music by In Auroram.
All lyrics by Asteria.
-


[torrentc.info]_t_4797245.torrent
Торрент: Зарегистрирован ·  [ 2018-04-29 21:46 ] ·  5073173fb84d4d42d7db6f5428a0830628e4013e

21 KB

Статус: проверено
Скачан: 0 раз
Размер: 946 MB
Оценка: 
(Голосов: 0)
Сказали спасибо: 0  Спасибо
Похожие темы
[Профиль]    [ЛС]
Показать сообщения:    
Ответить на тему

Текущее время: Сегодня 00:23

Часовой пояс: GMT + 7



Вы не можете начинать темы
Вы не можете отвечать на сообщения
Вы не можете редактировать свои сообщения
Вы не можете удалять свои сообщения
Вы не можете голосовать в опросах
Вы не можете прикреплять файлы к сообщениям
Вы можете скачивать файлы