Чемпионат Австрии 2017-18 / Tipico Bundesliga / 14-й тур / Обзор матчей / ORF Sport Plus [05.11.2017, футбол, IPTV, 720p/50fps, TS, DE]

Ответить на тему
Статистика раздачи [Обновить пиров]
Размер:  8.9 GB   |    Зарегистрирован:  3 месяца 23 дня   |    Скачан:  0 раз

Полного источника не было: Никогда

 
   
 
 
 
Автор Сообщение

torrentc.info

Создавать темы 26-Апр-2018 00:58

[Цитировать]

Чемпионат Австрии 2017-18 / Tipico Bundesliga / 14-й тур / Обзор матчей
Вид спорта: футбол
Дата/Год выхода: 04.11.2017
Язык комментариев: немецкий
Описание: Fußball Tipico Bundesliga. 14. Runde Highlights
Автор рипа/записи: el1ven
Качество: IPTV
Формат файла: TS
Видео: AVC, 1280 x 720 (16:9), 50 fps, ~8385 kbps avg
Аудио: 48 kHz, AC3, 6 ch, ~448 kbps

Media Info

Общее
Идентификатор : 1 (0x1)
Полное имя : D:\torrent\Tipico Bundesliga. 14. Runde. Highlights.ts
Формат файла : MPEG-TS
Размер файла : 8,90 Гбайт
Продолжительность : 2 ч. 10 м.
Режим общего битрейта : Переменный
Общий поток : 9773 Кбит/сек
Видео
Идентификатор : 256 (0x100)
Идентификатор меню : 1 (0x1)
Формат файла : AVC
Формат файла/Информация : Advanced Video Codec
Профиль формата : High@L4
Настройки формата : CABAC / 4 Ref Frames
Параметр CABAC формата : Да
Параметр RefFrames формата : 4 кадра
Идентификатор кодека : 27
Продолжительность : 2 ч. 10 м.
Битрейт : 8385 Кбит/сек
Ширина : 1280 пикселей
Высота : 720 пикселей
Соотношение сторон : 16:9
Частота кадров : 50,000 кадров/сек
Цветовое пространство : YUV
Субдискретизация насыщенности : 4:2:0
Битовая глубина : 8 бит
Тип развёртки : Прогрессивная
Бит/(Пиксели*Кадры) : 0.182
Размер потока : 7,64 Гбайт (86%)
Аудио #1
Идентификатор : 257 (0x101)
Идентификатор меню : 1 (0x1)
Формат файла : AC-3
Формат файла/Информация : Audio Coding 3
Идентификатор кодека : 129
Продолжительность : 2 ч. 10 м.
Вид битрейта : Постоянный
Битрейт : 448 Кбит/сек
Каналы : 6 каналов
Расположение каналов : Front: L C R, Side: L R, LFE
Частота : 48,0 КГц
Частота кадров : 31,250 кадров/сек (1536 SPF)
Битовая глубина : 16 бит
Метод сжатия : С потерями
Задержка видео : -60 мс.
Размер потока : 418 Мбайт (5%)
Язык : German
ServiceKind/String : Complete Main
Аудио #2
Идентификатор : 258 (0x102)
Идентификатор меню : 1 (0x1)
Формат файла : AC-3
Формат файла/Информация : Audio Coding 3
Идентификатор кодека : 129
Продолжительность : 2 ч. 10 м.
Вид битрейта : Постоянный
Битрейт : 448 Кбит/сек
Каналы : 6 каналов
Расположение каналов : Front: L C R, Side: L R, LFE
Частота : 48,0 КГц
Частота кадров : 31,250 кадров/сек (1536 SPF)
Битовая глубина : 16 бит
Метод сжатия : С потерями
Задержка видео : -60 мс.
Размер потока : 418 Мбайт (5%)
ServiceKind/String : Complete Main
Прочее
Идентификатор : 259 (0x103)-100
Идентификатор меню : 1 (0x1)
Формат файла : Teletext
Язык : German

Продолжительность

2 ч. 10 мин.

Счёт/Итог

Скриншоты



[torrentc.info]_t_5477790.torrent
Торрент: Зарегистрирован ·  [ 2018-04-26 00:57 ] ·  09694f85d5c42e7cb26fe6be1d6516ba47fb4b66

45 KB

Статус: проверено
Скачан: 0 раз
Размер: 8.9 GB
Оценка: 
(Голосов: 0)
Сказали спасибо: 0  Спасибо
Похожие темы
[Профиль]    [ЛС]
Показать сообщения:    
Ответить на тему

Текущее время: Сегодня 00:14

Часовой пояс: GMT + 7



Вы не можете начинать темы
Вы не можете отвечать на сообщения
Вы не можете редактировать свои сообщения
Вы не можете удалять свои сообщения
Вы не можете голосовать в опросах
Вы не можете прикреплять файлы к сообщениям
Вы можете скачивать файлы