Китайский продавец / China Salesman (Тань Бин / Tan Bing) [2017, Китай, боевик, приключения, WEB-DLRip] MVO (Синема УС) + Original Eng

Ответить на тему
Статистика раздачи [Обновить пиров]
Размер:  1.46 GB   |    Зарегистрирован:  7 месяцев 17 дней   |    Скачан:  0 раз

Полного источника не было: Никогда

 
   
 
 
 
Автор Сообщение

torrentc.info

Создавать темы 23-Апр-2018 21:47

[Цитировать]

Китайский продавец / China Salesman
Страна: Китай
Жанр: боевик, приключения
Год выхода: 2017
Продолжительность: 01:50:14
Перевод: Любительский (многоголосый закадровый) Синема УС
Субтитры: нет
Оригинальная аудиодорожка: английский
Режиссер: Тань Бин / Tan Bing
В ролях: Итан Ли, Майк Тайсон, Жанике Аскевольд, Ли Ай, Эрик Эбони, Стивен Сигал, Ван Цзыцзянь, Sheri Cheng, Anthony Gavard, Марк Гудман
Описание: Ян Цзянь, молодой китайский IT-инженер, отправляется в Северную Африку на конкурс. За право контролировать минеральные ресурсы страны будет бороться и Майкл, французский шпион. Он нанял лучшего наемника Африки и бывшего генерала Кабба, чтобы выиграть. Ян единственный, кто может их остановить.
Качество видео: WEB-DLRip
Формат файла: AVI
Видео: XviD, 720x304 (2,37:1), 23,976 fps, 1500 kbps
Аудио 1: AC3 Dolby Digital, 48 kHz, 2 ch, 192 kbps (Rus)
Аудио 2: AC3 Dolby Digital, 48 kHz, 2 ch, 192 kbps (Eng)
За аудиодорожку спасибо [url=profile.php?mode=viewprofile&u=selena_a]Selena_a[/url]

MediaInfo

ОбщееПолное имя : China Salesman 2017.aviФормат файла : AVIФормат файла/Информация : Audio Video InterleaveРазмер файла : 1,46 ГбайтПродолжительность : 1 ч. 50 м.Общий поток : 1897 Кбит/секПрограмма кодирования : VirtualDubMod 1.5.10.2 (build 2542/release)Библиотека кодирования : VirtualDubMod build 2542/release
ВидеоИдентификатор : 0Формат файла : MPEG-4 VisualПрофиль формата : Advanced Simple@L5Настройки формата : BVOP2 / Custom MatrixПараметр BVOP формата : 2Параметр QPel формата : НетПараметр GMC формата : Без точки переходаПараметр матрицы формата : ВыборочнаяИдентификатор кодека : XVIDИдентификатор кодека/Подсказка : XviDПродолжительность : 1 ч. 50 м.Битрейт : 1500 Кбит/секШирина : 720 пикселейВысота : 304 пикселяСоотношение сторон : 2,35:1Частота кадров : 24,000 кадра/секЦветовое пространство : YUVСубдискретизация насыщенности : 4:2:0Битовая глубина : 8 битТип развёртки : ПрогрессивнаяМетод сжатия : С потерямиБит/(Пиксели*Кадры) : 0.285Размер потока : 1,15 Гбайт (79%)Библиотека кодирования : XviD 65
Аудио #1Идентификатор : 1Формат файла : AC-3Формат файла/Информация : Audio Coding 3Идентификатор кодека : 2000Продолжительность : 1 ч. 50 м.Вид битрейта : ПостоянныйБитрейт : 192 Кбит/секКаналы : 2 каналаРасположение каналов : Front: L RЧастота : 48,0 КГцЧастота кадров : 31,250 кадров/сек (1536 SPF)Битовая глубина : 16 битМетод сжатия : С потерямиРазмер потока : 151 Мбайт (10%)Выравнивание : Разделение по промежуткамПродолжительность промежутка : 42 мс. (1,00 видеокадр)Время предзагрузки промежутка : 500 мс.ServiceKind/String : Complete Main
Аудио #2Идентификатор : 2Формат файла : AC-3Формат файла/Информация : Audio Coding 3Идентификатор кодека : 2000Продолжительность : 1 ч. 50 м.Вид битрейта : ПостоянныйБитрейт : 192 Кбит/секКаналы : 2 каналаРасположение каналов : Front: L RЧастота : 48,0 КГцЧастота кадров : 31,250 кадров/сек (1536 SPF)Битовая глубина : 16 битМетод сжатия : С потерямиРазмер потока : 151 Мбайт (10%)Выравнивание : Разделение по промежуткамПродолжительность промежутка : 42 мс. (1,00 видеокадр)Время предзагрузки промежутка : 500 мс.ServiceKind/String : Complete Main

Скриншоты





[torrentc.info]_t_5552184.torrent
Торрент: Зарегистрирован ·  [ 2018-04-23 21:47 ] ·  410c87e18d5b9fc44c82b97dfb6e4bd45e8d067b

15 KB

Статус: проверено
Скачан: 0 раз
Размер: 1.46 GB
Оценка: 
(Голосов: 0)
Сказали спасибо: 0  Спасибо
Похожие темы
[Профиль]    [ЛС]
Показать сообщения:    
Ответить на тему

Текущее время: Сегодня 16:10

Часовой пояс: GMT + 7



Вы не можете начинать темы
Вы не можете отвечать на сообщения
Вы не можете редактировать свои сообщения
Вы не можете удалять свои сообщения
Вы не можете голосовать в опросах
Вы не можете прикреплять файлы к сообщениям
Вы можете скачивать файлы