Призрачное счастье / У зеркала два лица / Le miroir à deux faces (Андре Кайатт / André Cayatte) [1958, Франция, Италия, драма, HDRip-AVC] Dub (Киностудия им. М. Горького) + Sub Rus, Fre

Ответить на тему
Статистика раздачи [Обновить пиров]
Размер:  700 MB   |    Зарегистрирован:  4 месяца 28 дней   |    Скачан:  0 раз

Полного источника не было: Никогда

 
   
 
 
 
Автор Сообщение

torrentc.info

Создавать темы 23-Апр-2018 21:47

[Цитировать]

Призрачное счастье / У зеркала два лица / Le miroir à deux faces
Страна: Франция, Италия
Жанр: драма
Год выхода: 1958
Продолжительность: 01:37:32
Перевод: Профессиональный (дублированный) Киностудия им. М. Горького
Субтитры: русские (форсированные, на отсутствующие в Советском прокате эпизоды), французские
Режиссер: Андре Кайатт / André Cayatte
В ролях: Мишель Морган / Michèle Morgan, Бурвиль / André Bourvil, Иван Дени / Ivan Desny, Жоржетт Анис / Georgette Anys, Жерар Ури / Gérard Oury, Жюльен Каретт / Julien Carette, Жорж Шамара / Georges Chamarat, Элизабет Мане / Elisabeth Manet, Жана Маркен / Jane Marken, Марсель Перес / Marcel Perès
Описание: В автомобильной аварии сильно пострадал преподаватель арифметики. Виновник аварии, известный пластический хирург, предлагает жене учителя в виде компенсации бесплатную операцию, которая превратит её в необыкновенную красавицу. Но принесет ли это счастье?
Доп. информация: Советский дубляж.
Роли дублировали:
Валентина Караваева, Владимир Осенев, Вячеслав Тихонов, Алексей Полевой, Владимир Балашов, Надежда Румянцева, Александра Панова, Олег Голубицкий
Сэмпл: https://www.sendspace.com/file/h81o18
Качество видео: HDRip-AVC
Формат файла: MKV
Видео: 768х464 (4/3), 24.000 fps, AVC ~962 Kbps avg, ~0.112/pixel
Аудио: 48 kHz, HE-AAC, 2/0 (L,R) ch, ~40,3 kbps
Формат файла субтитров: softsub (SRT)

MediaInfo

Призрачное счастье [У зеркала два лица] (Le miroir à deux faces) HDrip.1958.sub.rus.mkvФормат файла : MatroskaВерсия формата : Version 4 / Version 2Размер файла : 700 МбайтПродолжительность : 1 ч. 37 м.Общий поток : 1004 Кбит/секДата кодирования : UTC 2018-03-28 10:46:40Программа кодирования : mkvmerge v21.0.0 ('Tardigrades Will Inherit The Earth') 64-bitБиблиотека кодирования : libebml v1.3.5 + libmatroska v1.4.8
ВидеоИдентификатор : 1Формат файла : AVCФормат файла/Информация : Advanced Video CodecПрофиль формата : High@L4.1Параметр CABAC формата : ДаПараметр ReFrames формата : 16 кадровИдентификатор кодека : V_MPEG4/ISO/AVCПродолжительность : 1 ч. 37 м.Битрейт : 962 Кбит/секШирина : 768 пикселейВысота : 464 пикселяСоотношение сторон : 5:3Режим частоты кадров : ПостоянныйЧастота кадров : 24,000 кадра/секЦветовое пространство : YUVСубдискретизация насыщенности : 4:2:0Битовая глубина : 8 битТип развёртки : ПрогрессивнаяБит/(Пиксели*Кадры) : 0.112Размер потока : 671 Мбайт (96%)Заголовок : Призрачное счастье / Le miroir à deux faces.1958Библиотека кодирования : x264 core 155 r2901 7d0ff22Настройки программы : cabac=1 / ref=16 / deblock=1:-3:-3 / analyse=0x3:0x133 / me=umh / subme=10 / psy=1 / psy_rd=1.05:0.10 / mixed_ref=1 / me_range=32 / chroma_me=1 / trellis=2 / 8x8dct=1 / cqm=0 / deadzone=21,11 / fast_pskip=0 / chroma_qp_offset=-3 / threads=12 / lookahead_threads=3 / sliced_threads=0 / nr=0 / decimate=0 / interlaced=0 / bluray_compat=0 / constrained_intra=0 / bframes=14 / b_pyramid=2 / b_adapt=2 / b_bias=0 / direct=3 / weightb=1 / open_gop=0 / weightp=2 / keyint=240 / keyint_min=24 / scenecut=40 / intra_refresh=0 / rc_lookahead=60 / rc=2pass / mbtree=1 / bitrate=962 / ratetol=1.0 / qcomp=0.80 / qpmin=0 / qpmax=69 / qpstep=4 / cplxblur=20.0 / qblur=0.5 / vbv_maxrate=62500 / vbv_bufsize=78125 / nal_hrd=none / filler=0 / ip_ratio=1.40 / aq=1:1.00Default : ДаForced : Нет
АудиоИдентификатор : 4Формат файла : AACФормат файла/Информация : Advanced Audio CodecПрофиль формата : HE-AAC / LCИдентификатор кодека : A_AACПродолжительность : 1 ч. 37 м.Битрейт : 40,3 Кбит/секКаналы : 2 каналаРасположение каналов : Front: L RЧастота : 48,0 КГц / 24,0 КГцЧастота кадров : 23,438 кадра/сек (1024 spf)Метод сжатия : С потерямиЗадержка видео : 31 мс.Размер потока : 28,1 Мбайт (4%)Default : ДаForced : Нет
Текст #1Идентификатор : 2Формат файла : UTF-8Идентификатор кодека : S_TEXT/UTF8Идентификатор кодека/Информация : UTF-8 Plain TextПродолжительность : 1 ч. 32 м.Битрейт : 2 бит/секCount of elements : 20Размер потока : 1,56 Кбайт (0%)Заголовок : Субтитры русские, форсированныеЯзык : RussianDefault : НетForced : Да
Текст #2Идентификатор : 3Формат файла : UTF-8Идентификатор кодека : S_TEXT/UTF8Идентификатор кодека/Информация : UTF-8 Plain TextПродолжительность : 1 ч. 36 м.Битрейт : 69 бит/секCount of elements : 1384Размер потока : 49,5 Кбайт (0%)Заголовок : Субтитры французскиеЯзык : FrenchDefault : НетForced : Нет


[torrentc.info]_t_5550540.torrent
Торрент: Зарегистрирован ·  [ 2018-04-23 21:47 ] ·  06e263398e68a085e66c12e2e2061279b2a5622a

14 KB

Статус: проверено
Скачан: 0 раз
Размер: 700 MB
Оценка: 
(Голосов: 0)
Сказали спасибо: 0  Спасибо
Похожие темы
[Профиль]    [ЛС]
Показать сообщения:    
Ответить на тему

Текущее время: Сегодня 06:55

Часовой пояс: GMT + 7



Вы не можете начинать темы
Вы не можете отвечать на сообщения
Вы не можете редактировать свои сообщения
Вы не можете удалять свои сообщения
Вы не можете голосовать в опросах
Вы не можете прикреплять файлы к сообщениям
Вы можете скачивать файлы