(IDM, Experimental) [CD] Unlockedoor - Low Voltage - 2006, FLAC (tracks+.cue), lossless

Ответить на тему
Статистика раздачи [Обновить пиров]
Размер:  233 MB   |    Зарегистрирован:  1 месяц 29 дней   |    Скачан:  0 раз

Полного источника не было: Никогда

 
   
 
 
 
Автор Сообщение

torrentc.info

Создавать темы 21-Апр-2018 22:57

[Цитировать]

Unlockedoor / Low Voltage
Жанр: IDM, Experimental
Носитель: CD
Страна-производитель диска (релиза): Russia
Год издания: 2006
Издатель (лейбл): 2.99, Pale Bullet
Номер по каталогу: 299CD004
Аудиокодек: FLAC (*.flac)
Тип рипа: tracks+.cue
Битрейт аудио: lossless
Продолжительность: 0:38:00.
Источник (релизер): clustert
Наличие сканов в содержимом раздачи: да
Треклист:
01. Blind Alley [0:06:01.08]
02. Red Floor [0:05:38.37]
03. Low Voltage [0:03:31.62]
04. Tez2 [0:04:10.19]
05. Sleepwalker [0:04:44.16]
06. Brook [0:05:00.36]
07. Svb [0:05:31.74]
08. Railway [0:03:21.56]

Лог создания рипа

Exact Audio Copy V1.0 beta 3 from 29. August 2011
Отчёт EAC об извлечении, выполненном 10. апреля 2018, 19:54
Unlockedoor / Low Voltage
Дисковод: ASUS DRW-1814BLT Adapter: 5 ID: 0
Режим чтения : ДостоверностьИспользование точного потока : ДаОтключение кэша аудио : ДаИспользование указателей C2 : Нет
Коррекция смещения при чтении : 6Способность читать области Lead-in и Lead-out : НетЗаполнение пропущенных сэмплов тишиной : ДаУдаление блоков с тишиной в начале и конце : НетПри вычислениях CRC использовались нулевые сэмплы : ДаИнтерфейс : Встроенный Win32-интерфейс для Win NT/2000Обработка зазоров : Добавлено к предыдущему треку
Выходной формат : Пользовательский кодировщикВыбранный битрейт : 128 kBit/sКачество : ВысокийДобавление ID3-тега : НетУтилита сжатия : C:\Program Files\Exact Audio Copy\Flac\flac.exeДополнительные параметры : -V -8 -T "Genre=%genre%" -T "Artist=%artist%" -T "Title=%title%" -T "Album=%albumtitle%" -T "Date=%year%" -T "Tracknumber=%tracknr%" -T "Comment=EAC1.0b2 FLAC -8" %source%
TOC извлечённого CD
Трек | Старт | Длительность | Начальный сектор | Конечный сектор --------------------------------------------------------------------- 1 | 0:00.00 | 6:01.08 | 0 | 27082 2 | 6:01.08 | 5:38.37 | 27083 | 52469 3 | 11:39.45 | 3:31.62 | 52470 | 68356 4 | 15:11.32 | 4:10.19 | 68357 | 87125 5 | 19:21.51 | 4:44.16 | 87126 | 108441 6 | 24:05.67 | 5:00.36 | 108442 | 130977 7 | 29:06.28 | 5:31.74 | 130978 | 155876 8 | 34:38.27 | 3:21.56 | 155877 | 171007
Трек 1
Имя файла R:\Раздача 77\Unlockerdoor - 2006 - Low Voltage\01 Blind Alley .wav
Длина предзазора 0:00:02.00
Пиковый уровень 99.9 % Скорость извлечения 5.4 X Качество трека 100.0 % CRC теста DAC40C14 CRC копии DAC40C14 Трек не обнаружен в базе AccurateRip Копирование... OK
Трек 2
Имя файла R:\Раздача 77\Unlockerdoor - 2006 - Low Voltage\02 Red Floor .wav
Пиковый уровень 99.7 % Скорость извлечения 6.2 X Качество трека 100.0 % CRC теста 9C560695 CRC копии 9C560695 Трек не обнаружен в базе AccurateRip Копирование... OK
Трек 3
Имя файла R:\Раздача 77\Unlockerdoor - 2006 - Low Voltage\03 Low Voltage .wav
Пиковый уровень 99.9 % Скорость извлечения 4.7 X Качество трека 99.9 % CRC теста F2168292 CRC копии F2168292 Трек не обнаружен в базе AccurateRip Копирование... OK
Трек 4
Имя файла R:\Раздача 77\Unlockerdoor - 2006 - Low Voltage\04 Tez2 .wav
Пиковый уровень 99.9 % Скорость извлечения 7.0 X Качество трека 100.0 % CRC теста F8CE1355 CRC копии F8CE1355 Трек не обнаружен в базе AccurateRip Копирование... OK
Трек 5
Имя файла R:\Раздача 77\Unlockerdoor - 2006 - Low Voltage\05 Sleepwalker .wav
Пиковый уровень 99.9 % Скорость извлечения 5.7 X Качество трека 99.9 % CRC теста A1BF8D21 CRC копии A1BF8D21 Трек не обнаружен в базе AccurateRip Копирование... OK
Трек 6
Имя файла R:\Раздача 77\Unlockerdoor - 2006 - Low Voltage\06 Brook .wav
Пиковый уровень 99.9 % Скорость извлечения 8.0 X Качество трека 100.0 % CRC теста C7CF9C21 CRC копии C7CF9C21 Трек не обнаружен в базе AccurateRip Копирование... OK
Трек 7
Имя файла R:\Раздача 77\Unlockerdoor - 2006 - Low Voltage\07 Svb .wav
Пиковый уровень 99.9 % Скорость извлечения 6.6 X Качество трека 99.9 % CRC теста BDAD7E70 CRC копии BDAD7E70 Трек не обнаружен в базе AccurateRip Копирование... OK
Трек 8
Имя файла R:\Раздача 77\Unlockerdoor - 2006 - Low Voltage\08 Railway .wav
Пиковый уровень 99.9 % Скорость извлечения 8.4 X Качество трека 100.0 % CRC теста CD922373 CRC копии CD922373 Трек не обнаружен в базе AccurateRip Копирование... OK
Ни одного трека нет в базе AccurateRip
Ошибок не произошло
Конец отчёта
==== Контрольная сумма отчёта D4F44A21CFEC068A0621A43C31FC6D8469A99908569E5FA7FC39472E1172B4E7 ====

Содержание индексной карты (.CUE)

REM GENRE IDMREM DATE 2006REM DISCID 5C08E808REM COMMENT "ExactAudioCopy v1.0b3"PERFORMER "Unlockedoor"TITLE "Low Voltage"FILE "01 Blind Alley .wav" WAVE TRACK 01 AUDIO TITLE "Blind Alley" PERFORMER "Unlockedoor" FLAGS DCP INDEX 01 00:00:00FILE "02 Red Floor .wav" WAVE TRACK 02 AUDIO TITLE "Red Floor" PERFORMER "Unlockedoor" FLAGS DCP INDEX 01 00:00:00FILE "03 Low Voltage .wav" WAVE TRACK 03 AUDIO TITLE "Low Voltage" PERFORMER "Unlockedoor" FLAGS DCP INDEX 01 00:00:00FILE "04 Tez2 .wav" WAVE TRACK 04 AUDIO TITLE "Tez2" PERFORMER "Unlockedoor" FLAGS DCP INDEX 01 00:00:00FILE "05 Sleepwalker .wav" WAVE TRACK 05 AUDIO TITLE "Sleepwalker" PERFORMER "Unlockedoor" FLAGS DCP INDEX 01 00:00:00FILE "06 Brook .wav" WAVE TRACK 06 AUDIO TITLE "Brook" PERFORMER "Unlockedoor" FLAGS DCP INDEX 01 00:00:00FILE "07 Svb .wav" WAVE TRACK 07 AUDIO TITLE "Svb" PERFORMER "Unlockedoor" FLAGS DCP INDEX 01 00:00:00FILE "08 Railway .wav" WAVE TRACK 08 AUDIO TITLE "Railway" PERFORMER "Unlockedoor" FLAGS DCP INDEX 01 00:00:00


[torrentc.info]_t_5550124.torrent
Торрент: Зарегистрирован ·  [ 2018-04-21 22:53 ] ·  5dce5e79fac604e0d8e9d7f73c5590d21d080b13

20 KB

Статус: проверено
Скачан: 0 раз
Размер: 233 MB
Оценка: 
(Голосов: 0)
Сказали спасибо: 0  Спасибо
Похожие темы
[Профиль]    [ЛС]
Показать сообщения:    
Ответить на тему

Текущее время: Сегодня 15:06

Часовой пояс: GMT + 7



Вы не можете начинать темы
Вы не можете отвечать на сообщения
Вы не можете редактировать свои сообщения
Вы не можете удалять свои сообщения
Вы не можете голосовать в опросах
Вы не можете прикреплять файлы к сообщениям
Вы можете скачивать файлы