(Hard Rock) [CD] We Sell The Dead - Heaven Doesn\'t Want You And Hell Is Full - 2018, FLAC (tracks+.cue), lossless

Ответить на тему
Статистика раздачи [Обновить пиров]
Размер:  298 MB   |    Зарегистрирован:  1 месяц 2 дня   |    Скачан:  2 раза

Полного источника не было: 1 месяц 1 день

 
   
 
 
 
Автор Сообщение

torrentc.info

Создавать темы 20-Апр-2018 22:51

[Цитировать]

We Sell The Dead / Heaven Doesn't Want You And Hell Is Full
Жанр: Hard Rock
Носитель: CD
Страна-производитель диска (релиза): Пиратка
Год издания: 2018
Издатель (лейбл): earMUSIC
Номер по каталогу: 0212598EMU
Страна исполнителя (группы): USA
Аудиокодек: FLAC (*.flac)
Тип рипа: tracks+.cue
Битрейт аудио: lossless
Продолжительность: 00:42:34
Источник (релизер): Свой рип
Наличие сканов в содержимом раздачи: да
Треклист:
01. The Body Market 2:14
02. Echoes Of An Ugly Past 6:27
03. Leave Me Alone 4:34
04. Imagine 4:22
05. Turn It Over 3:59
06. Too Cold To Touch 5:11
07. Trust 5:34
08. Pale And Perfect 5:25
09. Silent Scream 4:49

Лог создания рипа

Exact Audio Copy V1.0 beta 3 from 29. August 2011
EAC extraction logfile from 18. April 2018, 17:54
We Sell The Dead / Heaven Doesn't Want You And Hell Is Full
Used drive : HL-DT-STDVDRAM GH24NSB0 Adapter: 0 ID: 0
Read mode : SecureUtilize accurate stream : YesDefeat audio cache : YesMake use of C2 pointers : No
Read offset correction : 6Overread into Lead-In and Lead-Out : NoFill up missing offset samples with silence : YesDelete leading and trailing silent blocks : NoNull samples used in CRC calculations : YesUsed interface : Native Win32 interface for Win NT & 2000Gap handling : Appended to previous track
Used output format : User Defined EncoderSelected bitrate : 896 kBit/sQuality : HighAdd ID3 tag : NoCommand line compressor : C:\Users\Alex\Desktop\EAC_1.0_beta_3_Portable_Multilingual\App\EAC\FLAC\flac.exeAdditional command line options : -6 -V -T "ARTIST=%artist%" -T "TITLE=%title%" -T "ALBUM=%albumtitle%" -T "DATE=%year%" -T "TRACKNUMBER=%tracknr%" -T "GENRE=%genre%" -T "COMMENT=%comment%" %hascover%--picture="%coverfile%"%hascover% %source% -o %dest%
TOC of the extracted CD
Track | Start | Length | Start sector | End sector --------------------------------------------------------- 1 | 0:00.00 | 2:13.65 | 0 | 10039 2 | 2:13.65 | 6:27.03 | 10040 | 39067 3 | 8:40.68 | 4:34.30 | 39068 | 59647 4 | 13:15.23 | 4:22.30 | 59648 | 79327 5 | 17:37.53 | 3:58.51 | 79328 | 97228 6 | 21:36.29 | 5:10.66 | 97229 | 120544 7 | 26:47.20 | 5:33.45 | 120545 | 145564 8 | 32:20.65 | 5:24.38 | 145565 | 169902 9 | 37:45.28 | 4:48.40 | 169903 | 191542
Track 1
Filename C:\Users\Alex\Desktop\Рипы\Новая папка (2)\01. The Body Market.wav
Pre-gap length 0:00:02.00
Peak level 98.8 % Extraction speed 1.0 X Track quality 100.0 % Test CRC 800A052A Copy CRC 800A052A Accurately ripped (confidence 1) [0123A41C] (AR v2) Copy OK
Track 2
Filename C:\Users\Alex\Desktop\Рипы\Новая папка (2)\02. Echoes of an Ugly Past.wav
Peak level 98.8 % Extraction speed 1.3 X Track quality 100.0 % Test CRC 0DAC5111 Copy CRC 0DAC5111 Accurately ripped (confidence 1) [F2A5FB53] (AR v2) Copy OK
Track 3
Filename C:\Users\Alex\Desktop\Рипы\Новая папка (2)\03. Leave Me Alone.wav
Peak level 98.8 % Extraction speed 1.4 X Track quality 100.0 % Test CRC E4657159 Copy CRC E4657159 Accurately ripped (confidence 1) [BEA8FF9C] (AR v2) Copy OK
Track 4
Filename C:\Users\Alex\Desktop\Рипы\Новая папка (2)\04. Imagine.wav
Peak level 98.8 % Extraction speed 1.5 X Track quality 100.0 % Test CRC AA9BBB4B Copy CRC AA9BBB4B Accurately ripped (confidence 1) [BA58AFFB] (AR v2) Copy OK
Track 5
Filename C:\Users\Alex\Desktop\Рипы\Новая папка (2)\05. Turn It Over.wav
Peak level 98.8 % Extraction speed 1.4 X Track quality 99.9 % Test CRC F9BA18FA Copy CRC F9BA18FA Accurately ripped (confidence 1) [A64C8B19] (AR v2) Copy OK
Track 6
Filename C:\Users\Alex\Desktop\Рипы\Новая папка (2)\06. Too Cold to Touch.wav
Peak level 98.8 % Extraction speed 1.7 X Track quality 100.0 % Test CRC F41B2714 Copy CRC F41B2714 Accurately ripped (confidence 1) [3E398D39] (AR v2) Copy OK
Track 7
Filename C:\Users\Alex\Desktop\Рипы\Новая папка (2)\07. Trust.wav
Peak level 98.8 % Extraction speed 1.8 X Track quality 100.0 % Test CRC 6BCBB71C Copy CRC 6BCBB71C Accurately ripped (confidence 1) [DD63EDB9] (AR v2) Copy OK
Track 8
Filename C:\Users\Alex\Desktop\Рипы\Новая папка (2)\08. Pale and Perfect.wav
Peak level 98.8 % Extraction speed 2.0 X Track quality 100.0 % Test CRC 559B6271 Copy CRC 559B6271 Accurately ripped (confidence 1) [E8210F9F] (AR v2) Copy OK
Track 9
Filename C:\Users\Alex\Desktop\Рипы\Новая папка (2)\09. Silent Scream.wav
Peak level 98.8 % Extraction speed 1.8 X Track quality 99.9 % Test CRC 74B7C1C2 Copy CRC 74B7C1C2 Accurately ripped (confidence 1) [81BC052F] (AR v2) Copy OK
All tracks accurately ripped
No errors occurred
End of status report
==== Log checksum 033A278B56B63670A6DF9D949E1E469A57794BAC8C35D0B382ECFF4379436863 ====

Содержание индексной карты (.CUE)

REM GENRE "Hard Rock"REM DATE 2018REM DISCID 7F09F909REM COMMENT "ExactAudioCopy v1.0b3"PERFORMER "We Sell The Dead"TITLE "Heaven Doesn't Want You And Hell Is Full"FILE "01. The Body Market.wav" WAVE TRACK 01 AUDIO TITLE "The Body Market" PERFORMER "We Sell The Dead" INDEX 01 00:00:00FILE "02. Echoes of an Ugly Past.wav" WAVE TRACK 02 AUDIO TITLE "Echoes of an Ugly Past" PERFORMER "We Sell The Dead" INDEX 01 00:00:00FILE "03. Leave Me Alone.wav" WAVE TRACK 03 AUDIO TITLE "Leave Me Alone" PERFORMER "We Sell The Dead" INDEX 01 00:00:00FILE "04. Imagine.wav" WAVE TRACK 04 AUDIO TITLE "Imagine" PERFORMER "We Sell The Dead" INDEX 01 00:00:00FILE "05. Turn It Over.wav" WAVE TRACK 05 AUDIO TITLE "Turn It Over" PERFORMER "We Sell The Dead" INDEX 01 00:00:00FILE "06. Too Cold to Touch.wav" WAVE TRACK 06 AUDIO TITLE "Too Cold to Touch" PERFORMER "We Sell The Dead" INDEX 01 00:00:00FILE "07. Trust.wav" WAVE TRACK 07 AUDIO TITLE "Trust" PERFORMER "We Sell The Dead" INDEX 01 00:00:00FILE "08. Pale and Perfect.wav" WAVE TRACK 08 AUDIO TITLE "Pale and Perfect" PERFORMER "We Sell The Dead" INDEX 01 00:00:00FILE "09. Silent Scream.wav" WAVE TRACK 09 AUDIO TITLE "Silent Scream" PERFORMER "We Sell The Dead" INDEX 01 00:00:00
Доп. информация: https://youtu.be/P0Dsfwu-Dq8

Состав

Niclas Engelin – Guitar (IN FLAMES)
Gas Lipstick – Drums (ex-HIM)
Jonas Slättung – Bass (ex-HIM)
Apollo Papathanasio – Vocfls (SPIRITUAL BEGGARS & FIREWIND)


[torrentc.info]_t_5550492.torrent
Торрент: Зарегистрирован ·  [ 2018-04-20 22:47 ] ·  d88a2089d4dd1843fa25492073951228f562e9f4

13 KB

Статус: проверено
Скачан: 2 раз
Размер: 298 MB
Оценка: 
(Голосов: 0)
Сказали спасибо: 0  Спасибо
Похожие темы
[Профиль]    [ЛС]
Показать сообщения:    
Ответить на тему

Текущее время: Сегодня 12:12

Часовой пояс: GMT + 7



Вы не можете начинать темы
Вы не можете отвечать на сообщения
Вы не можете редактировать свои сообщения
Вы не можете удалять свои сообщения
Вы не можете голосовать в опросах
Вы не можете прикреплять файлы к сообщениям
Вы можете скачивать файлы