Мишель Корнье / Michele Cournoyer - Четыре анимационных фильма [1994-2008, Канада, авторская анимация, WEBRip-AVC]

Ответить на тему
Статистика раздачи [Обновить пиров]
Размер:  350 MB   |    Зарегистрирован:  7 месяцев 26 дней   |    Скачан:  0 раз

Полного источника не было: 4 месяца 1 день

 
   
 
 
 
Автор Сообщение

torrentc.info

Создавать темы 16-Апр-2018 22:56

[Цитировать]

[img=right]https://c.radikal.ru/c08/1803/e3/2e0d0f018487.jpg[/img]
Мишель Корнье / Michèle Cournoyer - Четыре анимационных фильма

Мишель Корнье - канадская сценаристка, режиссёр и художница, автор нескольких анимационных фильмов, для которых характерно обращение к различным социальным проблемам

Информация по фильмам:
Артистка / Une Artiste / An Artist
Страна: Канада
Жанр: авторская анимация
Год выхода: 1994
Продолжительность: 00:05:16
Перевод: не требуется
Субтитры: нет
Описание: Девочка любит музыку, но отец не хочет замечать её талант.
Доп. информация: Специальный приз - Фестиваль в Хиросиме (1996)
Качество видео: WEBRip-AVC
Формат файла: MP4
Видео: 2206 kbps, 960х720 (4:3), 24.000 fps, AVC (High@L3.1)
Аудио: 192 kbps, 44.1 kHz, 2 channels, AAC (LC)

MediaInfo

General
Complete name : Michele Cournoyer\Une Artiste (1994).mp4
Format : MPEG-4
Format profile : Base Media / Version 2
Codec ID : mp42
File size : 90.5 MiB
Duration : 5mn 16s
Overall bit rate mode : Variable
Overall bit rate : 2 400 Kbps
Encoded date : UTC 2015-07-02 07:30:57
Tagged date : UTC 2015-07-02 07:30:57
gsst : 0
gstd : 316463
gssd : B4A7DDA65MM1437835630560136
gshh : r5---sn-4g57kuez.googlevideo.com
Video
ID : 1
Format : AVC
Format/Info : Advanced Video Codec
Format profile : High@L3.1
Format settings, CABAC : Yes
Format settings, ReFrames : 1 frame
Codec ID : avc1
Codec ID/Info : Advanced Video Coding
Duration : 5mn 16s
Bit rate : 2 206 Kbps
Maximum bit rate : 4 092 Kbps
Width : 960 pixels
Height : 720 pixels
Display aspect ratio : 4:3
Frame rate mode : Constant
Frame rate : 24.000 fps
Color space : YUV
Chroma subsampling : 4:2:0
Bit depth : 8 bits
Scan type : Progressive
Bits/(Pixel*Frame) : 0.133
Stream size : 83.2 MiB (92%)
Tagged date : UTC 2015-07-02 07:31:00
Audio
ID : 2
Format : AAC
Format/Info : Advanced Audio Codec
Format profile : LC
Codec ID : 40
Duration : 5mn 16s
Bit rate mode : Variable
Bit rate : 192 Kbps
Maximum bit rate : 202 Kbps
Channel(s) : 2 channels
Channel positions : Front: L R
Sampling rate : 44.1 KHz
Compression mode : Lossy
Stream size : 7.24 MiB (8%)
Title : IsoMedia File Produced by Google, 5-11-2011
Encoded date : UTC 2015-07-02 07:30:59
Tagged date : UTC 2015-07-02 07:31:00

Скриншот с названием фильма

[img]https://c.radikal.ru/c09/1803/54/d6fb69673a82t.jpg[/img]
Шляпа / Le Chapeau / The Hat
Страна: Канада
Жанр: авторская анимация
Год выхода: 1999
Продолжительность: 00:06:13
Перевод: не требуется
Субтитры: нет
Описание: Визуальные метаморфозы, отображающие подсознание юной стриптизёрши, подвергавшейся в детстве сексуальным домогательствам взрослого мужчины, чья шляпа навсегда стала для неё подавляющим символом.
Доп. информация: 12 фестивальных наград
Качество видео: WEBRip-AVC
Формат файла: MP4
Видео: 1387 kbps, 960х720 (4:3), 24.000 fps, AVC (High@L3.1)
Аудио: 192 kbps, 44.1 kHz, 2 channels, AAC (LC)

MediaInfo

General
Complete name : Michele Cournoyer\Le Chapeau (1999).mp4
Format : MPEG-4
Format profile : Base Media / Version 2
Codec ID : mp42
File size : 70.4 MiB
Duration : 6mn 13s
Overall bit rate mode : Variable
Overall bit rate : 1 581 Kbps
Encoded date : UTC 2015-07-09 03:46:23
Tagged date : UTC 2015-07-09 03:46:23
gsst : 0
gstd : 373515
gssd : B4A7DDA22MM1437745763794892
gshh : r2---sn-4g57kuel.googlevideo.com
Video
ID : 1
Format : AVC
Format/Info : Advanced Video Codec
Format profile : High@L3.1
Format settings, CABAC : Yes
Format settings, ReFrames : 1 frame
Codec ID : avc1
Codec ID/Info : Advanced Video Coding
Duration : 6mn 13s
Bit rate : 1 387 Kbps
Maximum bit rate : 3 093 Kbps
Width : 960 pixels
Height : 720 pixels
Display aspect ratio : 4:3
Frame rate mode : Constant
Frame rate : 24.000 fps
Color space : YUV
Chroma subsampling : 4:2:0
Bit depth : 8 bits
Scan type : Progressive
Bits/(Pixel*Frame) : 0.084
Stream size : 61.7 MiB (88%)
Tagged date : UTC 2015-07-09 03:46:25
Audio
ID : 2
Format : AAC
Format/Info : Advanced Audio Codec
Format profile : LC
Codec ID : 40
Duration : 6mn 13s
Bit rate mode : Variable
Bit rate : 192 Kbps
Maximum bit rate : 202 Kbps
Channel(s) : 2 channels
Channel positions : Front: L R
Sampling rate : 44.1 KHz
Compression mode : Lossy
Stream size : 8.55 MiB (12%)
Title : IsoMedia File Produced by Google, 5-11-2011
Encoded date : UTC 2015-07-09 03:46:24
Tagged date : UTC 2015-07-09 03:46:25

Скриншот с названием фильма

[img]https://c.radikal.ru/c28/1803/08/3ff91a5b6d92t.jpg[/img]
Аккордеон / Accordéon / Accordion
Страна: Канада
Жанр: авторская анимация
Год выхода: 2004
Продолжительность: 00:06:02
Перевод: не требуется
Субтитры: нет
Описание: Образное изображение связей между любовью, сексом и технологиями.
Доп. информация: Специальное упоминание - Фестиваль в Лейпциге (2004)
Качество видео: WEBRip-AVC
Формат файла: MP4
Видео: 2407 kbps, 1280х720 (16:9), 24.000 fps, AVC (High@L3.1)
Аудио: 192 kbps, 44.1 kHz, 2 channels, AAC (LC)

MediaInfo

General
Complete name : Michele Cournoyer\Accordeon (2004).mp4
Format : MPEG-4
Format profile : Base Media / Version 2
Codec ID : mp42
File size : 112 MiB
Duration : 6mn 2s
Overall bit rate mode : Variable
Overall bit rate : 2 602 Kbps
Encoded date : UTC 2015-07-10 11:57:46
Tagged date : UTC 2015-07-10 11:57:46
gsst : 0
gstd : 362091
gssd : B4A7DDA27MM1437745684217878
gshh : r7---sn-4g57kuel.googlevideo.com
Video
ID : 1
Format : AVC
Format/Info : Advanced Video Codec
Format profile : High@L3.1
Format settings, CABAC : Yes
Format settings, ReFrames : 1 frame
Codec ID : avc1
Codec ID/Info : Advanced Video Coding
Duration : 6mn 2s
Bit rate : 2 407 Kbps
Maximum bit rate : 5 598 Kbps
Width : 1 280 pixels
Height : 720 pixels
Display aspect ratio : 16:9
Frame rate mode : Constant
Frame rate : 24.000 fps
Color space : YUV
Chroma subsampling : 4:2:0
Bit depth : 8 bits
Scan type : Progressive
Bits/(Pixel*Frame) : 0.109
Stream size : 104 MiB (93%)
Tagged date : UTC 2015-07-10 11:57:47
Audio
ID : 2
Format : AAC
Format/Info : Advanced Audio Codec
Format profile : LC
Codec ID : 40
Duration : 6mn 2s
Bit rate mode : Variable
Bit rate : 192 Kbps
Maximum bit rate : 201 Kbps
Channel(s) : 2 channels
Channel positions : Front: L R
Sampling rate : 44.1 KHz
Compression mode : Lossy
Stream size : 8.29 MiB (7%)
Title : IsoMedia File Produced by Google, 5-11-2011
Encoded date : UTC 2015-07-10 11:57:46
Tagged date : UTC 2015-07-10 11:57:47

Скриншот с названием фильма

[img]https://b.radikal.ru/b38/1803/07/264d119b0124t.jpg[/img]
Одежда войны / Robe de querre / Robes of war
Страна: Канада
Жанр: авторская анимация
Год выхода: 2008
Продолжительность: 00:05:16
Перевод: не требуется
Субтитры: нет
Описание: Погружение в сознание мусульманской женщины, мужчину которой забрала война.
Доп. информация: Лучший анимационный фильм - Фестиваль "Jutra" (2010)
Качество видео: WEBRip-AVC
Формат файла: MP4
Видео: 1847 kbps, 1280х720 (16:9), 24.000 fps, AVC (High@L3.1)
Аудио: 192 kbps, 44.1 kHz, 2 channels, AAC (LC)

MediaInfo

General
Complete name : Michele Cournoyer\Robe de querre (2008).mp4
Format : MPEG-4
Format profile : Base Media / Version 2
Codec ID : mp42
File size : 77.0 MiB
Duration : 5mn 16s
Overall bit rate mode : Variable
Overall bit rate : 2 042 Kbps
Encoded date : UTC 2015-07-12 07:13:44
Tagged date : UTC 2015-07-12 07:13:44
gsst : 0
gstd : 316463
gssd : B5FB51044MM1437836026394487
gshh : r1---sn-xapbiu-3xwl.googlevideo.com
Video
ID : 1
Format : AVC
Format/Info : Advanced Video Codec
Format profile : High@L3.1
Format settings, CABAC : Yes
Format settings, ReFrames : 1 frame
Format settings, GOP : M=1, N=60
Codec ID : avc1
Codec ID/Info : Advanced Video Coding
Duration : 5mn 16s
Bit rate : 1 847 Kbps
Maximum bit rate : 5 931 Kbps
Width : 1 280 pixels
Height : 720 pixels
Display aspect ratio : 16:9
Frame rate mode : Constant
Frame rate : 24.000 fps
Color space : YUV
Chroma subsampling : 4:2:0
Bit depth : 8 bits
Scan type : Progressive
Bits/(Pixel*Frame) : 0.084
Stream size : 69.7 MiB (90%)
Tagged date : UTC 2015-07-12 07:13:46
Audio
ID : 2
Format : AAC
Format/Info : Advanced Audio Codec
Format profile : LC
Codec ID : 40
Duration : 5mn 16s
Bit rate mode : Variable
Bit rate : 192 Kbps
Maximum bit rate : 201 Kbps
Channel(s) : 2 channels
Channel positions : Front: L R
Sampling rate : 44.1 KHz
Compression mode : Lossy
Stream size : 7.24 MiB (9%)
Title : IsoMedia File Produced by Google, 5-11-2011
Encoded date : UTC 2015-07-12 07:13:45
Tagged date : UTC 2015-07-12 07:13:46

Скриншот с названием фильма

[img]https://b.radikal.ru/b19/1803/59/00b159ef772bt.jpg[/img]


[torrentc.info]_t_4275276.torrent
Торрент: Зарегистрирован ·  [ 2018-04-16 22:54 ] ·  5874560c57de9783507f03920f467145174253d0

14 KB

Статус: проверено
Скачан: 0 раз
Размер: 350 MB
Оценка: 
(Голосов: 0)
Сказали спасибо: 0  Спасибо
Похожие темы
[Профиль]    [ЛС]
Показать сообщения:    
Ответить на тему

Текущее время: Сегодня 18:01

Часовой пояс: GMT + 7



Вы не можете начинать темы
Вы не можете отвечать на сообщения
Вы не можете редактировать свои сообщения
Вы не можете удалять свои сообщения
Вы не можете голосовать в опросах
Вы не можете прикреплять файлы к сообщениям
Вы можете скачивать файлы