Чаадский (Кирилл Серебренников) [2017, Спектакль-опера, WEB-DLRip, AVC] Театр «Геликон-опера»

Ответить на тему
Статистика раздачи [Обновить пиров]
Размер:  608 MB   |    Зарегистрирован:  3 месяца 3 дня   |    Скачан:  0 раз

Полного источника не было: Никогда

 
   
 
 
 
Автор Сообщение

torrentc.info

Создавать темы 16-Апр-2018 22:56

[Цитировать]

Чаадский
Название театра: Театр «Геликон-опера»
Жанр: Спектакль-опера
Год выхода: 2017
Продолжительность: 02:05:00
Режиссёр: Кирилл Серебренников
В ролях: Михаил Никаноров, Александр Киселев, Ольга Спицына, Дмитрий Янковский, Анна Гречишкина, Елена Ионова, Вадим Летунов, Богдан Мотрук, Георгий Екимов, Анатолий Пономарев, Иван Лукин, Татьяна Башмакова, Анна Змеева, Ольга Мелкумова, Наталья Фаттахова, Ангелина Зацепина, Ольга Депутатова
Описание: Раннее утро: дочь Софья тайно уединяется со слугой Молчалиным, хозяин дома Фамусов заигрывает с горничной Лизой. Происходит неловкая встреча всех четверых, но скандала не происходит: на самом деле все обо всём догадываются. Чуть позже в этот тихий мирок врывается Чаадский, вольнодумный молодой человек, когда-то живший в этом доме после того, как потерял родителей, друзей Фамусова.
Качество видео: WEB-DLRip
Формат файла: MP4
Видео: AVC 852x480 16:9 25.000 fps 542 Kbps
Аудио: MPEG 128 Kbps 2 channels 44.1 KHz

MediaInfo

General
Complete name : Chaadskiy.mp4
Format : MPEG-4
Format profile : Base Media
Codec ID : isom
File size : 608 MiB
Duration : 2h 5mn
Overall bit rate : 676 Kbps
Encoded date : UTC 2018-04-14 20:19:28
Tagged date : UTC 2018-04-14 20:19:28
Writing application : vlc 3.0.1 stream output
Video
ID : 2
Format : AVC
Format/Info : Advanced Video Codec
Format profile : High@L3.0
Format settings, CABAC : Yes
Format settings, ReFrames : 4 frames
Codec ID : avc1
Codec ID/Info : Advanced Video Coding
Duration : 2h 5mn
Bit rate : 542 Kbps
Width : 864 pixels
Original width : 852 pixels
Height : 482 pixels
Original height : 480 pixels
Display aspect ratio : 16:9
Original display aspect ratio : 16:9
Frame rate mode : Variable
Frame rate : 25.000 fps
Minimum frame rate : 12.500 fps
Maximum frame rate : 25.000 fps
Color space : YUV
Chroma subsampling : 4:2:0
Bit depth : 8 bits
Scan type : Progressive
Bits/(Pixel*Frame) : 0.052
Stream size : 487 MiB (80%)
Writing library : x264 core 148
Encoding settings : cabac=1 / ref=3 / deblock=1:0:0 / analyse=0x3:0x13 / me=hex / subme=7 / psy=1 / psy_rd=1.00:0.00 / mixed_ref=1 / me_range=16 / chroma_me=1 / trellis=1 / 8x8dct=1 / cqm=0 / deadzone=21,11 / fast_pskip=1 / chroma_qp_offset=-2 / threads=6 / lookahead_threads=1 / sliced_threads=0 / nr=0 / decimate=1 / interlaced=0 / bluray_compat=0 / constrained_intra=0 / bframes=3 / b_pyramid=2 / b_adapt=1 / b_bias=0 / direct=1 / weightb=1 / open_gop=0 / weightp=2 / keyint=250 / keyint_min=25 / scenecut=40 / intra_refresh=0 / rc_lookahead=40 / rc=crf / mbtree=1 / crf=23.0 / qcomp=0.60 / qpmin=10 / qpmax=51 / qpstep=4 / ip_ratio=1.40 / aq=1:1.00
Language : English
Encoded date : UTC 2018-04-14 20:19:28
Tagged date : UTC 2018-04-14 20:19:28
Audio
ID : 1
Format : MPEG Audio
Format version : Version 1
Format profile : Layer 2
Codec ID : 6B
Duration : 2h 5mn
Bit rate mode : Constant
Bit rate : 128 Kbps
Maximum bit rate : 182 Kbps
Channel(s) : 2 channels
Sampling rate : 44.1 KHz
Compression mode : Lossy
Stream size : 115 MiB (19%)
Language : English
Encoded date : UTC 2018-04-14 20:19:28
Tagged date : UTC 2018-04-14 20:19:28
mdhd_Duration : 7544627

Скриншоты






[torrentc.info]_t_5549115.torrent
Торрент: Зарегистрирован ·  [ 2018-04-16 22:54 ] ·  c052cd4aab294e3c1df2c2b358697a7ee1645210

12 KB

Статус: проверено
Скачан: 0 раз
Размер: 608 MB
Оценка: 
(Голосов: 0)
Сказали спасибо: 0  Спасибо
Похожие темы
[Профиль]    [ЛС]
Показать сообщения:    
Ответить на тему

Текущее время: Сегодня 07:43

Часовой пояс: GMT + 7



Вы не можете начинать темы
Вы не можете отвечать на сообщения
Вы не можете редактировать свои сообщения
Вы не можете удалять свои сообщения
Вы не можете голосовать в опросах
Вы не можете прикреплять файлы к сообщениям
Вы можете скачивать файлы