Ударная группа / Smeris / Force / Сезон: 1 / Серии: 1-10 из 10 (Дэвид Ламмерс, Эрик де Брюн) [2014, Нидерланды, драма, криминал, WEBRip] MVO (Eurochannel) + Original

Ответить на тему
Статистика раздачи [Обновить пиров]
Размер:  5.87 GB   |    Зарегистрирован:  9 дней   |    Скачан:  0 раз

Полного источника не было: Никогда

 
   
 
 
 
Автор Сообщение

torrentc.info

Создавать темы 16-Апр-2018 22:56

[Цитировать]

Ударная группа / Smeris / Force
Год выхода: 2014
Страна: Нидерланды
Жанр: драма, криминал
Продолжительность: 0:50:00
Перевод: Профессиональный (многоголосый закадровый) Eurochannel
Режиссёр: Дэвид Ламмерс, Эрик де Брюн
В ролях: Йерун ван Конингсбругге, Дэннис ван Де Вен, Мими Феррер, Патрик Стоф, Кики ван Дерсен, Дан ван Дейсселдонк, Хуб Смит, Филип Пеетерс
Описание: Население нидерландского города Тилбург страдает от разгула преступности и насилия. С этой проблемой борется следователь отдела убийств Тео Камп, человек резкий и безжалостный. Однажды он пересекает границы закона, чем ставит под угрозу свою полицейскую карьеру. В качестве наказания Кампа отправляют в другое подразделение, а его новым партнером становится самый бескомпромиссный детектив.
Сэмпл: http://multi-up.com/1184994
Качество: WEBRip
Формат файла: MKV
Видео: AVC, 720x576@1024x576 (16:9), 25.000 fps, 1 062 Kbps (0.102 bit/pixel)
Аудио: AC-3, 48.0 KHz, 2 ch, 192 Kbps, CBR (Russian)
Аудио 2: AC-3, 48.0 KHz, 6 ch, 448 Kbps, CBR (Dutch)
Субтитры: нет
Реклама:
нет

MediaInfo

Общее
Уникальный идентификатор : 214732284462455468150582475704523418757 (0xA18BEF04D1D4E6B2A916F9AB1A81EC85)
Полное имя : M:\Ударная группа. Сезон 1\1x01 - Losse handjes (Связанные руки).mkv
Формат файла : Matroska
Версия формата : Version 4 / Version 2
Размер файла : 587 Мбайт
Продолжительность : 47 м.
Общий поток : 1736 Кбит/сек
Название фильма : Ударная группа. Сезон 1 / Smeris. Seizoen 1 (2014)
Дата кодирования : UTC 2018-01-29 10:26:01
Программа кодирования : mkvmerge v8.2.0 ('World of Adventure') 64bit
Библиотека кодирования : libebml v1.3.1 + libmatroska v1.4.2
Видео
Идентификатор : 1
Формат файла : AVC
Формат файла/Информация : Advanced Video Codec
Профиль формата : High@L4.1
Параметр CABAC формата : Да
Параметр ReFrames формата : 4 кадра
Идентификатор кодека : V_MPEG4/ISO/AVC
Продолжительность : 47 м.
Битрейт : 1094 Кбит/сек
Ширина : 720 пикселей
Высота : 576 пикселей
Соотношение сторон : 16:9
Режим частоты кадров : Постоянный
Частота кадров : 25,000 кадров/сек
Стандарт вещания : PAL
Цветовое пространство : YUV
Субдискретизация насыщенности : 4:2:0
Битовая глубина : 8 бит
Тип развёртки : Прогрессивная
Бит/(Пиксели*Кадры) : 0.106
Размер потока : 370 Мбайт (63%)
Библиотека кодирования : x264 core 142 r2479 dd79a61
Настройки программы : cabac=1 / ref=3 / deblock=1:0:0 / analyse=0x3:0x113 / me=hex / subme=7 / psy=1 / psy_rd=1.00:0.00 / mixed_ref=1 / me_range=16 / chroma_me=1 / trellis=1 / 8x8dct=1 / cqm=0 / deadzone=21,11 / fast_pskip=1 / chroma_qp_offset=-2 / threads=12 / lookahead_threads=2 / sliced_threads=0 / nr=0 / decimate=1 / interlaced=0 / bluray_compat=0 / constrained_intra=0 / bframes=3 / b_pyramid=2 / b_adapt=1 / b_bias=0 / direct=1 / weightb=1 / open_gop=0 / weightp=2 / keyint=250 / keyint_min=25 / scenecut=40 / intra_refresh=0 / rc_lookahead=40 / rc=crf / mbtree=1 / crf=20.0 / qcomp=0.60 / qpmin=0 / qpmax=69 / qpstep=4 / vbv_maxrate=62500 / vbv_bufsize=78125 / crf_max=0.0 / nal_hrd=none / filler=0 / ip_ratio=1.40 / aq=1:1.00
Язык : Dutch
Default : Да
Forced : Нет
Цветовой диапазон : Limited
Основные цвета : BT.601 PAL
Характеристики трансфера : BT.709
Коэффициенты матрицы : BT.601
Аудио #1
Идентификатор : 2
Формат файла : AC-3
Формат файла/Информация : Audio Coding 3
Расширение режима : CM (complete main)
Параметр Endianness формата : Big
Идентификатор кодека : A_AC3
Продолжительность : 47 м.
Вид битрейта : Постоянный
Битрейт : 192 Кбит/сек
Каналы : 2 канала
Расположение каналов : Front: L R
Частота : 48,0 КГц
Частота кадров : 31,250 кадров/сек (1536 spf)
Метод сжатия : С потерями
Задержка видео : -80 мс.
Размер потока : 64,9 Мбайт (11%)
Заголовок : Профессиональный (многоголосый, закадровый) Eurochannel
Язык : Russian
Default : Да
Forced : Нет
Аудио #2
Идентификатор : 3
Формат файла : AC-3
Формат файла/Информация : Audio Coding 3
Расширение режима : CM (complete main)
Параметр Endianness формата : Big
Идентификатор кодека : A_AC3
Продолжительность : 47 м.
Вид битрейта : Постоянный
Битрейт : 448 Кбит/сек
Каналы : 6 каналов
Расположение каналов : Front: L C R, Side: L R, LFE
Частота : 48,0 КГц
Частота кадров : 31,250 кадров/сек (1536 spf)
Метод сжатия : С потерями
Размер потока : 151 Мбайт (26%)
Язык : Dutch
Default : Нет
Forced : Нет
Меню
00:00:00.000 : en:Chapter 1
00:09:31.040 : en:Chapter 2
00:17:13.080 : en:Chapter 3
00:28:58.960 : en:Chapter 4
00:38:09.320 : en:Chapter 5
00:46:27.160 : en:Chapter 6

Скриншоты


[url=tracker.php?g=foreign_serials&nm=Smeris%20Force]Предыдущие и альтернативные раздачи[/url]


[torrentc.info]_t_5513540.torrent
Торрент: Зарегистрирован ·  [ 2018-04-16 22:54 ] ·  ed54e45afc74662f9ef37b258b651b6c39b28201

31 KB

Статус: проверено
Скачан: 0 раз
Размер: 5.87 GB
Оценка: 
(Голосов: 0)
Сказали спасибо: 0  Спасибо
Похожие темы
[Профиль]    [ЛС]
Показать сообщения:    
Ответить на тему

Текущее время: Сегодня 16:25

Часовой пояс: GMT + 7



Вы не можете начинать темы
Вы не можете отвечать на сообщения
Вы не можете редактировать свои сообщения
Вы не можете удалять свои сообщения
Вы не можете голосовать в опросах
Вы не можете прикреплять файлы к сообщениям
Вы можете скачивать файлы