Без лица 12 / Face Off 12 (Питер Ней) / Серии: 2 из 10 [2017, реалити-шоу, WEBRip 720p] VO (ViruseProject)

Ответить на тему
Статистика раздачи [Обновить пиров]
Размер:  2.04 GB   |    Зарегистрирован:  7 месяцев 26 дней   |    Скачан:  0 раз

Полного источника не было: Никогда

 
   
 
 
 
Автор Сообщение

torrentc.info

Создавать темы 16-Апр-2018 22:55

[Цитировать]

Без лица 12 | Face Off 12
Страна: США
Тип раздаваемого материала: реалити-шоу
Продолжительность: ~00:43:00
Год выхода: 2017
Язык: Русский
Перевод: Одноголосый закадровый ViruseProject
Режиссер: Питер Ней
В ролях: МакКензи Вестмор, Гленн Хетрик, Ви Нилл, Майкл Вестмор, Невилл Пейдж, Кристофер Трой, Меган Альбертус и др.
Описание: Американское реалити-шоу, в котором соревнуются непрофессиональные гримёры — создатели спецэффектов для кино и театра. Каждую неделю конкурсанты получают задание по созданию образа (гибрид человека и животного, инопланетянин, маньяк, зомби, сказочный персонаж, грим, меняющий пол человека и тд.) и по итогам оценки жюри самый слабый конкурсант покидает шоу.
Качество: WEBRip 720р
Формат файла: MKV
Видео кодек: H.264
Аудио кодек: AAC
Видео: AVC, 1 280x720 (16:9), 23.976 fps, ~4 000 Kbps, 8 bits
Аудио: 48 KHz, AAC, 2 channels, 192 kbps
[url=tracker.php?f=939&nm=%C1%E5%E7+%EB%E8%F6%E0+Face+Off]Ссылка на предыдущие и альтернативные раздачи[/url]
MediaInfo">

Скриншоты MediaInfo


General
Unique ID : 181661284560864161402892069678010786842 (0x88AAB0D61DE17C709692126F0E62E41A)
Complete name : E:\ОЗВУЧКА\ТЕЛЕПЕРЕДАЧИ\Face.Off.S12.720p.ViruseProject\Face.Off.S12.720p.ViruseProject\Face.Off.S12E01.720p.ViruseProject.mkv
Format : Matroska
Format version : Version 4 / Version 2
File size : 1.01 GiB
Duration : 43 min 28 s
Overall bit rate mode : Variable
Overall bit rate : 3 338 kb/s
Encoded date : UTC 2018-04-06 07:37:19
Writing application : mkvmerge v8.3.0 ('Over the Horizon') 64bit
Writing library : libebml v1.3.1 + libmatroska v1.4.2
Video
ID : 1
Format : AVC
Format/Info : Advanced Video Codec
Format profile : High@L4
Format settings, CABAC : Yes
Format settings, ReFrames : 2 frames
Format settings, GOP : M=2, N=12
Codec ID : V_MPEG4/ISO/AVC
Duration : 43 min 28 s
Bit rate mode : Variable
Bit rate : 3 143 kb/s
Maximum bit rate : 4 000 kb/s
Width : 1 280 pixels
Height : 720 pixels
Display aspect ratio : 16:9
Frame rate mode : Constant
Frame rate : 23.976 (24000/1001) FPS
Color space : YUV
Chroma subsampling : 4:2:0
Bit depth : 8 bits
Scan type : Progressive
Bits/(Pixel*Frame) : 0.142
Stream size : 978 MiB (94%)
Language : English
Default : Yes
Forced : No
Audio
ID : 2
Format : AAC
Format/Info : Advanced Audio Codec
Format profile : LC
Codec ID : A_AAC
Duration : 43 min 28 s
Bit rate : 192 kb/s
Channel(s) : 2 channels
Channel positions : Front: L R
Sampling rate : 48.0 kHz
Frame rate : 46.875 FPS (1024 spf)
Compression mode : Lossy
Stream size : 59.7 MiB (6%)
Title : ViruseProject
Language : Russian
Default : Yes
Forced : No

Внимание! Раздача ведётся путём добавления новых серий

Внимание! Раздача ведётся путём добавления новых серий; при каждом добавлении создаётся новый торрент. Чтобы начать докачку новой серии, пользователям необходимо сделать следующее:
(1) остановить скачивание,
(2) удалить старый торрент у себя из клиента (старые серии удалять не надо),
(3) скачать новый торрент и запустить его у себя в клиенте вместо старого, при этом указать клиенту путь в старую папку куда и должно происходить скачивание новых серий.
Ваш клиент при этом должен произвести хеширование (проверку) старой папки (если не производит сам - помогите ему сделать это), и будет докачивать только те серии которых у вас ещё нет. Старые серии при этом не удаляются, а продолжают раздаваться!
Eсли вы уже удалили старые серии, то предотвратить повторную закачку старых серий можно, отжав галочку в соответствующих местах при запуске нового торрента. По возможности, желательно не удалять старые серии как можно дольше чтобы релизёр не столько продолжал раздавать старые серии, а смог сконцентрироваться на новых.


[torrentc.info]_t_5545022.torrent
Торрент: Зарегистрирован ·  [ 2018-04-16 22:54 ] ·  582323c9eb0cabde51e9e47382dd01434bf2d517

11 KB

Статус: проверено
Скачан: 0 раз
Размер: 2.04 GB
Оценка: 
(Голосов: 0)
Сказали спасибо: 0  Спасибо
Похожие темы
[Профиль]    [ЛС]
Показать сообщения:    
Ответить на тему

Текущее время: Сегодня 18:27

Часовой пояс: GMT + 7



Вы не можете начинать темы
Вы не можете отвечать на сообщения
Вы не можете редактировать свои сообщения
Вы не можете удалять свои сообщения
Вы не можете голосовать в опросах
Вы не можете прикреплять файлы к сообщениям
Вы можете скачивать файлы