Дорога людей. Мухтар Ауэзов и Манас (Канат Есеманов) [2012, Казахстан, документальный, биография, DVB] Original (Rus)

Ответить на тему
Статистика раздачи [Обновить пиров]
Размер:  771 MB   |    Зарегистрирован:  10 дней   |    Скачан:  0 раз

Полного источника не было: Никогда

 
   
 
 
 
Автор Сообщение

torrentc.info

Создавать темы 15-Апр-2018 23:02

[Цитировать]

Дорога людей. Мухтар Ауэзов и Манас Страна: Казахстан
Жанр: документальный, биография
Продолжительность: 00:49:47
Год выхода: 2012
Перевод: не требуется
Субтитры: отсутствуют-Режиссер: Канат Есеманов-Описание: Фильм посвящен Мухтару Ауэзову, а также о том, как он отстоял киргизский народный эпос Манас...-Семпл: https://www.sendspace.com/file/2im05x-Качество: DVB [Ел Арна] (эфир 24.02.2018)Формат файла: MKV
Видео: AVC, 720х576 (16:9) @ 1047х576, 25 fps, ~1930 kbps, 0.186 bit/pixel
Аудио: [RUS] 48 kHz, MP2, 2 ch, 192 kbps

Mediainfo

ОбщееУникальный идентификатор : 59985139441878770140155197617798357812 (0x2D20B7B6661C0FCC02F9D714FCCBA334)Полное имя : F:\Дорога людей. Мухтар Ауэзов и Манас (2012) [DVB].mkvФормат файла : MatroskaВерсия формата : Version 2Размер файла : 771 МбайтПродолжительность : 49 м. 47 с.Общий поток : 2165 Кбит/секПрограмма кодирования : Lavf54.63.104Библиотека кодирования : Lavf54.63.104
ВидеоИдентификатор : 1Формат файла : AVCФормат файла/Информация : Advanced Video CodecПрофиль формата : High@L3Параметр CABAC формата : ДаПараметр RefFrames формата : 3 кадраИдентификатор кодека : V_MPEG4/ISO/AVCПродолжительность : 49 м. 47 с.Битрейт : 1930 Кбит/секШирина : 720 пикселейВысота : 576 пикселейСоотношение сторон : 16:9Соотношение сторон в оригинале : 16:9Режим частоты кадров : ПостоянныйЧастота кадров : 25,000 кадров/секСтандарт вещания : ComponentЦветовое пространство : YUVСубдискретизация насыщенности : 4:2:0Битовая глубина : 8 битТип развёртки : ЧересстрочнаяМетод сохранения типа развёртки : Раздельные поляПорядок развёртки : Верхнее поле первоеБит/(Пиксели*Кадры) : 0.186Размер потока : 687 Мбайт (89%)Default : НетForced : НетЦветовой диапазон : LimitedОсновные цвета : BT.601 PALХарактеристики трансфера : BT.470 System B, BT.470 System GКоэффициенты матрицы : BT.470 System B, BT.470 System G
АудиоИдентификатор : 2Формат файла : MPEG AudioВерсия формата : Version 1Профиль формата : Layer 2Идентификатор кодека : A_MPEG/L2Идентификатор кодека/Подсказка : MP2Продолжительность : 49 м. 47 с.Вид битрейта : ПостоянныйБитрейт : 192 Кбит/секКаналы : 2 каналаЧастота : 48,0 КГцМетод сжатия : С потерямиРазмер потока : 68,4 Мбайт (9%)Язык : EnglishDefault : ДаForced : Нет

Скриншоты



[torrentc.info]_t_5525578.torrent
Торрент: Зарегистрирован ·  [ 2018-04-15 22:57 ] ·  fc66827c77f1040ef010d19a8d2aa1525591424a

16 KB

Статус: проверено
Скачан: 0 раз
Размер: 771 MB
Оценка: 
(Голосов: 0)
Сказали спасибо: 0  Спасибо
Похожие темы
[Профиль]    [ЛС]
Показать сообщения:    
Ответить на тему

Текущее время: Сегодня 16:30

Часовой пояс: GMT + 7



Вы не можете начинать темы
Вы не можете отвечать на сообщения
Вы не можете редактировать свои сообщения
Вы не можете удалять свои сообщения
Вы не можете голосовать в опросах
Вы не можете прикреплять файлы к сообщениям
Вы можете скачивать файлы