Вам что, наша власть не нравится? (Анатолий Добровский) [1988, комедия, SATRip]

Ответить на тему
Статистика раздачи [Обновить пиров]
Размер:  1.46 GB   |    Зарегистрирован:  5 месяцев 4 дня   |    Скачан:  0 раз

Полного источника не было: Никогда

 
   
 
 
 
Автор Сообщение

torrentc.info

Создавать темы 15-Апр-2018 22:58

[Цитировать]

Вам что, наша власть не нравится?

Жанр: комедия
Год выхода: 1988
Продолжительность: 01:28:42

Режиссёр: Анатолий Добровский
В ролях: Андрей Петров, Марина Полицеймако, Владимир Стеклов, Любовь Полехина, Нина Дорошина, Виктор Павлов, Вячеслав Невинный, Лев Борисов, Юрий Воробьев, Алексей Консовский, Людмила Иванова, Капитолина Ильенко, Алексей Миронов, Виктор Степанов, Леонид Персиянинов, Сергей Рубеко, Николай Парфёнов, Николай Карнаухов, Марина Поляк, Олег Измайлов, Валентин Смирнитский, Виктор Филиппов и другие
Описание: В одной коммунальной квартире встал как-то вопрос о том, чтобы перенести одну из дверей немного в сторону и увеличить площадь комнаты — всего на каких-то полтора квадратных метра. Решать этот «сложный» вопрос, пришлось в итоге чуть ли не на самом высоком уровне.
Качество видео: SATRip
Формат файла: AVI
Видео: 720x320 (2.25:1), 25 fps, XviD build 73 ~2146 kbps avg, 0.37 bit/pixel
Аудио: 48 kHz, AC3 Dolby Digital, 2/0 (L,R) ch, ~192 kbps

Источник: Torrentc

http://Torrentc/forum/viewtopic.php?t=3006580--ajnjgbnth______________________teko


MediaInfo

General
Complete name : H:\Вам.что,наша.власть.не.нравится.1988.satrip_1.46_[teko].avi
Format : AVI
Format/Info : Audio Video Interleave
File size : 1.46 GiB
Duration : 1h 28mn
Overall bit rate : 2 349 Kbps
Writing application : VirtualDubMod 1.5.10.3 | www.virtualdub-fr.org || (build 2550/release)
Writing library : VirtualDubMod build 2550/release
Video
ID : 0
Format : MPEG-4 Visual
Format profile : Advanced Simple@L5
Format settings, BVOP : 2
Format settings, QPel : No
Format settings, GMC : No warppoints
Format settings, Matrix : Custom
Codec ID : XVID
Codec ID/Hint : XviD
Duration : 1h 28mn
Bit rate : 2 147 Kbps
Width : 720 pixels
Height : 320 pixels
Display aspect ratio : 2.25:1
Frame rate : 25.000 fps
Color space : YUV
Chroma subsampling : 4:2:0
Bit depth : 8 bits
Scan type : Progressive
Compression mode : Lossy
Bits/(Pixel*Frame) : 0.373
Stream size : 1.33 GiB (91%)
Writing library : XviD 73
Audio
ID : 1
Format : AC-3
Format/Info : Audio Coding 3
Mode extension : CM (complete main)
Format settings, Endianness : Big
Codec ID : 2000
Duration : 1h 28mn
Bit rate mode : Constant
Bit rate : 192 Kbps
Channel(s) : 2 channels
Channel positions : Front: L R
Sampling rate : 48.0 KHz
Frame rate : 31.250 fps (1536 spf)
Compression mode : Lossy
Stream size : 122 MiB (8%)
Alignment : Split accross interleaves
Interleave, duration : 40 ms (1.00 video frame)
Interleave, preload duratio : 500 ms
:--


[torrentc.info]_t_5548684.torrent
Торрент: Зарегистрирован ·  [ 2018-04-15 22:57 ] ·  cf73af55e3dce4dc3cf3f288807ee2faaac7c3d7

15 KB

Статус: проверено
Скачан: 0 раз
Размер: 1.46 GB
Оценка: 
(Голосов: 0)
Сказали спасибо: 0  Спасибо
Похожие темы
[Профиль]    [ЛС]
Показать сообщения:    
Ответить на тему

Текущее время: Сегодня 18:36

Часовой пояс: GMT + 7



Вы не можете начинать темы
Вы не можете отвечать на сообщения
Вы не можете редактировать свои сообщения
Вы не можете удалять свои сообщения
Вы не можете голосовать в опросах
Вы не можете прикреплять файлы к сообщениям
Вы можете скачивать файлы