(Avant-Prog / Jazz-Rock / Experimental) [WEB] Alfie Ryner - Memorial I - 2010, FLAC (tracks), lossless

Ответить на тему
Статистика раздачи [Обновить пиров]
Размер:  374 MB   |    Зарегистрирован:  7 месяцев 26 дней   |    Скачан:  0 раз

Полного источника не было: Никогда

 
   
 
 
 
Автор Сообщение

torrentc.info

Создавать темы 14-Апр-2018 22:58

[Цитировать]

Alfie Ryner / Memorial I
Жанр: Avant-Prog / Jazz-Rock / Experimental
Носитель: WEB
Год издания: 2010
Издатель (лейбл): Web Release
Страна исполнителя (группы): France
Аудиокодек: FLAC (*.flac)
Тип рипа: tracks
Битрейт аудио: lossless
Продолжительность: 64:26 min
Источник (релизер): bandcamp.com
Наличие сканов в содержимом раздачи:
Треклист:
1. Un mollard sur le cable. 6:37
2. Anti... 4:22
3. Midou. 6:57
4. Palinka. 3:20
5. Assuétude. 4:55
6. ça groove à San Pedro. 10:03
7. Oncle Ben. 6:10
8. X-flat. 5:35
9. D'ouest en est. 4:48
10. Amlak abèt abèt. 11:34

DRM.log

foobar2000 1.3.8 / Dynamic Range Meter 1.1.1log date: 2018-04-11 00:07:35
--------------------------------------------------------------------------------Analyzed: Alfie Ryner / Memorial I--------------------------------------------------------------------------------
DR Peak RMS Duration Track--------------------------------------------------------------------------------DR8 -0.14 dB -10.28 dB 6:37 01-Un Mollard Sur Le CableDR9 -0.14 dB -13.85 dB 4:23 02-Anti ...DR8 -0.14 dB -12.27 dB 6:58 03-MidouDR7 -0.13 dB -8.46 dB 3:21 04-PalinkaDR10 -0.14 dB -13.39 dB 4:55 05-AssuétudeDR12 -0.14 dB -16.08 dB 10:03 06-Ca Groove À San PedroDR8 -0.13 dB -11.15 dB 6:10 07-Oncle BenDR9 -0.14 dB -11.10 dB 5:35 08-X-FlatDR9 -0.14 dB -11.84 dB 4:48 09-D'ouest En EstDR8 -0.14 dB -10.84 dB 11:35 10-Amlak Abèt Abèt--------------------------------------------------------------------------------
Number of tracks: 10Official DR value: DR9
Samplerate: 44100 HzChannels: 2Bits per sample: 16Bitrate: 871 kbpsCodec: FLAC================================================================================

Лог проверки качества

-----------------------
DON'T MODIFY THIS FILE
-----------------------
PERFORMER: auCDtect Task Manager, ver. 1.6.0 RC1 build 1.6.0.1Copyright (c) 2008-2010 y-soft. All rights reservedhttp://y-soft.org
ANALYZER: auCDtect: CD records authenticity detector, version 0.8.2Copyright (c) 2004 Oleg Berngardt. All rights reserved.Copyright (c) 2004 Alexander Djourik. All rights reserved.
FILE: 01 - Un Mollard Sur Le Cable.flac Size: 48140146 Hash: 406B08005929ACCC84B0386303D35821 Accuracy: -m0 Conclusion: CDDA 100% Signature: D71B1695E599FD45E10F39637A883DE2A8584DB4FILE: 02 - Anti ....flac Size: 24504103 Hash: B162655C5D289DBACB402548B57835E4 Accuracy: -m0 Conclusion: CDDA 100% Signature: A7C61B8CA6C0EC53C1776F3A7C2D5D359AA1C4C0FILE: 03 - Midou.flac Size: 39498739 Hash: 8E90A7A4ABC3E38D5DE8A57947D69787 Accuracy: -m0 Conclusion: CDDA 100% Signature: E8CC411D6E5F2B8181A66B793E4F8E3C6288A037FILE: 04 - Palinka.flac Size: 24641017 Hash: 13425F3BD2972767196B8C4712C1A149 Accuracy: -m0 Conclusion: CDDA 100% Signature: 121B0D6E806C78579499D8CAB9AB5DA21B7AB834FILE: 05 - Assuetude.flac Size: 22911577 Hash: D3C17C63B34BD88DB930165346DC6FA6 Accuracy: -m0 Conclusion: CDDA 100% Signature: D69A98B474D850075BA88303F41F2C8DA10C88CBFILE: 06 - Ca Groove A San Pedro.flac Size: 50400194 Hash: 463D2132EC3F1F1ED613BCF68986D016 Accuracy: -m0 Conclusion: CDDA 100% Signature: CAE57A0610329E484F67260E2C5786093D56610AFILE: 07 - Oncle Ben.flac Size: 40327953 Hash: 9C01E2EEC02E54308F8E375009C9DAB8 Accuracy: -m0 Conclusion: CDDA 100% Signature: D83A072F4F20913C6DBB7259B51F79AD8C870621FILE: 08 - X-Flat.flac Size: 35547323 Hash: 98797DFCA105A63F610E5A1C67C3A436 Accuracy: -m0 Conclusion: CDDA 100% Signature: D8E030155F1EB3610471DA7D564BFDA3B2D380F3FILE: 09 - D'ouest En Est.flac Size: 30683338 Hash: 09C444FAD5C16C48918442E999310F06 Accuracy: -m0 Conclusion: CDDA 100% Signature: FFF91815428C6FAFFA0FC7B2451AAD3483052B29FILE: 10 - Amlak Abet Abet.flac Size: 75749002 Hash: A79CCED98C41E8B33CBE6A5358EAABD5 Accuracy: -m0 Conclusion: CDDA 100% Signature: 843C823D644E58E360589EE79DCFF8173492561D

Об альбоме (сборнике)

released April 22, 2010


[torrentc.info]_t_5547720.torrent
Торрент: Зарегистрирован ·  [ 2018-04-14 22:55 ] ·  2bd5166c573ceec2309fcfb4039574861f201a04

16 KB

Статус: проверено
Скачан: 0 раз
Размер: 374 MB
Оценка: 
(Голосов: 0)
Сказали спасибо: 0  Спасибо
Похожие темы
[Профиль]    [ЛС]
Показать сообщения:    
Ответить на тему

Текущее время: Сегодня 16:10

Часовой пояс: GMT + 7



Вы не можете начинать темы
Вы не можете отвечать на сообщения
Вы не можете редактировать свои сообщения
Вы не можете удалять свои сообщения
Вы не можете голосовать в опросах
Вы не можете прикреплять файлы к сообщениям
Вы можете скачивать файлы