Искатели приключений: В ловушке в центре / Trouble Shooters: Trapped Beneath the Earth (Брэдфорд Мэй / Bradford May) [1993, США, драма, VHSRip] AVO (Андрей Дольский)

Ответить на тему
Статистика раздачи [Обновить пиров]
Размер:  1.37 GB   |    Зарегистрирован:  7 месяцев 4 дня   |    Скачан:  0 раз

Полного источника не было: Никогда

 
   
 
 
 
Автор Сообщение

torrentc.info

Создавать темы 13-Апр-2018 00:57

[Цитировать]

Искатели приключений: В ловушке в центре / Trouble Shooters: Trapped Beneath the Earth
Страна: США
Жанр: драма
Год выхода: 1993
Продолжительность: 01:28:35
Перевод: Авторский (одноголосый закадровый) Андрей Дольский
Субтитры: нет
Режиссер: Брэдфорд Мэй / Bradford May
В ролях: Крис Кристофферсон
Дэвид Ньюсом
Ли МакКлоски
Фрэнк МакРей
Гари Грэхэм
Кэйтлин Дюлэйни
Лесли Экерман
Шон Леви
Описание: A rescue team is looking for survivors in a sinking building after a devastating earthquake.
Жду аннотацию от alenavova
Доп. информация: Оцифровка VHS (личный архив) и получение VHSRip alenavova
Эксклюзив для Torrentc. При размещении данного релиза на других сайтах ссылка на автора

Сэмпл: https://yadi.sk/i/wdXhjfYk3UMnRL
Качество видео: VHSRip
Формат файла: AVI
Видео: 704x528 (1.33:1), 25 fps, XviD build 73 ~2006 kbps avg, 0.22 bit/pixel
Аудио: 48 kHz, AC3 Dolby Digital, 2/0 (L,R) ch, ~192 kbps

MediaInfo

Искатели приключений. В ловушке в центре Земли - Trouble Shooters (by alenavova).aviFormat : AVIFormat/Info : Audio Video InterleaveFile size : 1.37 GiBDuration : 1 h 28 minOverall bit rate : 2 209 kb/sMovie name : Искатели приключений. В ловушке в центре Земли - Trouble Shooters (by alenavova)Director : by alenavovaWriting application : VirtualDubMod 1.5.10.3 | www.virtualdub-fr.org || (build 2550/release)Copyright : Edich2Comment : Torrentc
VideoID : 0Format : MPEG-4 VisualFormat profile : Advanced Simple@L5Format settings, BVOP : 2Format settings, QPel : NoFormat settings, GMC : No warppointsFormat settings, Matrix : CustomCodec ID : XVIDCodec ID/Hint : XviDDuration : 1 h 28 minBit rate : 2 007 kb/sWidth : 704 pixelsHeight : 528 pixelsDisplay aspect ratio : 4:3Frame rate : 25.000 FPSColor space : YUVChroma subsampling : 4:2:0Bit depth : 8 bitsScan type : ProgressiveCompression mode : LossyBits/(Pixel*Frame) : 0.216Stream size : 1.24 GiB (91%)Writing library : XviD 73
AudioID : 1Format : AC-3Format/Info : Audio Coding 3Format settings, Endianness : BigCodec ID : 2000Duration : 1 h 28 minBit rate mode : ConstantBit rate : 192 kb/sChannel(s) : 2 channelsChannel positions : Front: L RSampling rate : 48.0 kHzFrame rate : 31.250 FPS (1536 spf)Bit depth : 16 bitsCompression mode : LossyStream size : 122 MiB (9%)Alignment : Split accross interleavesInterleave, duration : 40 ms (1.00 video frame)Interleave, preload duratio : 500 msService kind : Complete Main

Скриншоты




[torrentc.info]_t_5547847.torrent
Торрент: Зарегистрирован ·  [ 2018-04-13 00:57 ] ·  9eec92579bcaeb27560d17982d1d8c3b9d592ec6

14 KB

Статус: проверено
Скачан: 0 раз
Размер: 1.37 GB
Оценка: 
(Голосов: 0)
Сказали спасибо: 0  Спасибо
Похожие темы
[Профиль]    [ЛС]
Показать сообщения:    
Ответить на тему

Текущее время: Сегодня 03:22

Часовой пояс: GMT + 7



Вы не можете начинать темы
Вы не можете отвечать на сообщения
Вы не можете редактировать свои сообщения
Вы не можете удалять свои сообщения
Вы не можете голосовать в опросах
Вы не можете прикреплять файлы к сообщениям
Вы можете скачивать файлы