3D FPV 2017. Полёты на коптере. в 3Д / 3D (Я, лично) [2017, Видовой, объектный, HDrip-AVC] Half SideBySide / Горизонтальная анаморфная стереопара

Ответить на тему
Статистика раздачи [Обновить пиров]
Размер:  5.43 GB   |    Зарегистрирован:  8 месяцев 4 дня   |    Скачан:  0 раз

Полного источника не было: Никогда

Личеров:  1  [  0 KB/s  ]   Подробная статистика скачивающих
 
   
 
 
 
Автор Сообщение

torrentc.info

Создавать темы 09-Апр-2018 08:21

[Цитировать]

3D FPV 2017. Полёты на коптере.
Год выхода: 2017
Страна: Россия
Студия: отсутствует
Жанр: Видовой, объектный
Продолжительность: 1:16:38
Перевод: Не требуется
Русские субтитры: нет
Режиссер на русском: Я, лично
Описание: Рад представить вам результаты моего хобби. Специально сделал коптер для стереоскопической съёмки с видом от первого лица (first person view – FPV). Занимаюсь этим с 12го года, но только сейчас дошёл до приемлемого качества видео, которое можно публично показывать. Всего в раздаче 8 небольших роликов по 6-15 минут каждый, они не имеют сюжета. Это «объектные» ролики, некая смесь видео и фото жанров. У них нет сюжета, это лучшие моменты полётов над интересными мне местами, возможность посмотреть на них с недостижимых без коптера точек обзора. Основная цель, которую я перед собой ставил – максимально создать эффект присутствия. Стереобаза у камер в 10 раз больше, чем у человека, поэтому всё будет выглядеть чуть-чуть игрушечным, но объём виден на значительно большем расстоянии.
Качество: HDrip
Формат файла: AVI
Формат файла 3D: Half SideBySide / Горизонтальная анаморфная стереопара
Порядок ракурсов: левый ракурс первый
Видео кодек: x264
Аудио кодек: MP3
Видео: х264, 1920х1080p / 60 fps / 10 Mbps
Аудио: MP3, стерео, 44.1KHz, 160Kbps

MediaInfo

eneral
Complete name : E:\Photo 3\3D FPV на торрент\08.Берёзы_иней.avi
Format : AVI
Format/Info : Audio Video Interleave
File size : 857 MiB
Duration : 11mn 53s
Overall bit rate : 10.1 Mbps
Writing library : VirtualDub build 35491/release
Video
ID : 0
Format : AVC
Format/Info : Advanced Video Codec
Format profile : High@L4.2
Format settings, CABAC : Yes
Format settings, ReFrames : 4 frames
Codec ID : H264
Duration : 11mn 53s
Bit rate : 10 000 Kbps
Width : 1 920 pixels
Height : 1 080 pixels
Display aspect ratio : 16:9
Frame rate : 60.000 fps
Original frame rate : 59.990 fps
Color space : YUV
Chroma subsampling : 4:2:0
Bit depth : 8 bits
Scan type : Progressive
Bits/(Pixel*Frame) : 0.080
Stream size : 842 MiB (98%)
Writing library : x264 core 148 r2694bm 3b70645
Encoding settings : cabac=1 / ref=3 / deblock=1:0:0 / analyse=0x3:0x113 / me=hex / subme=7 / psy=1 / psy_rd=1.00:0.00 / mixed_ref=1 / me_range=16 / chroma_me=1 / trellis=1 / 8x8dct=1 / cqm=0 / deadzone=21,11 / fast_pskip=1 / chroma_qp_offset=-2 / threads=3 / lookahead_threads=1 / sliced_threads=0 / nr=0 / decimate=1 / interlaced=0 / bluray_compat=0 / constrained_intra=0 / bframes=3 / b_pyramid=2 / b_adapt=1 / b_bias=0 / direct=1 / weightb=1 / open_gop=0 / weightp=2 / keyint=250 / keyint_min=25 / scenecut=40 / intra_refresh=0 / rc_lookahead=40 / rc=abr / mbtree=1 / bitrate=10000 / ratetol=1.0 / qcomp=0.60 / qpmin=0 / qpmax=69 / qpstep=4 / ip_ratio=1.40 / aq=1:1.00
Audio
ID : 1
Format : MPEG Audio
Format version : Version 1
Format profile : Layer 3
Mode : Joint stereo
Mode extension : MS Stereo
Codec ID : 55
Codec ID/Hint : MP3
Duration : 11mn 53s
Bit rate mode : Constant
Bit rate : 160 Kbps
Channel(s) : 2 channels
Sampling rate : 48.0 KHz
Compression mode : Lossy
Stream size : 13.6 MiB (2%)
Alignment : Split accross interleaves
Interleave, duration : 17 ms (1.00 video frame)
Interleave, preload duration : 500 ms
Writing library : LAME3.98.2

Скриншоты






[torrentc.info]_t_5505391.torrent
Торрент: Зарегистрирован ·  [ 2018-04-09 08:21 ] ·  94c50df2418325bc4140059e64245888d88b32d3

28 KB

Статус: проверено
Скачан: 0 раз
Размер: 5.43 GB
Оценка: 
(Голосов: 0)
Сказали спасибо: 0  Спасибо
Похожие темы
[Профиль]    [ЛС]
Показать сообщения:    
Ответить на тему

Текущее время: Сегодня 18:23

Часовой пояс: GMT + 7



Вы не можете начинать темы
Вы не можете отвечать на сообщения
Вы не можете редактировать свои сообщения
Вы не можете удалять свои сообщения
Вы не можете голосовать в опросах
Вы не можете прикреплять файлы к сообщениям
Вы можете скачивать файлы