Дача, пришельцы, огурцы (Екатерина Михеева) [2017, Россия, мультфильм, WEBRip-AVC]

Ответить на тему
Статистика раздачи [Обновить пиров]
Размер:  12 MB   |    Зарегистрирован:  7 месяцев 7 дней   |    Скачан:  1 раз

Полного источника не было: 3 месяца 13 дней

 
   
 
 
 
Автор Сообщение

torrentc.info

Создавать темы 08-Апр-2018 23:44

[Цитировать]

Дача, пришельцы, огурцы
[img=right]https://d.radikal.ru/d33/1804/50/869740b866b0.jpg[/img]
Страна: Россия
Жанр: мультфильм
Продолжительность: 00:02:04
Год выхода: 2017
Режиссёр: Екатерина Михеева
Описание: Шуточный мультфильм о пришельцах, пытавшихся похитить девочку из русской деревни.
Доп. информация: Диплом "за высокий полёт огурца" - Суздальский Фестиваль анимации (2018)
Качество: WEBRip-AVC
Формат файла: MP4
Видео: 557 kbps, 1280х720 (16:9), 25.000 fps, AVC (High@L3.1)
Аудио: 256 kbps, 48.0 kHz, 2 channels, AAC (LC)
Субтитры: отсутствуют

Подробные технические данные

GeneralComplete name : Дача, пришельцы, огурцы (2017).mp4Format : MPEG-4Format profile : Base Media / Version 2Codec ID : mp42File size : 12.5 MiBDuration : 2mn 4sOverall bit rate mode : VariableOverall bit rate : 837 KbpsEncoded date : UTC 2017-12-24 11:18:49Tagged date : UTC 2017-12-24 11:18:49
VideoID : 1Format : AVCFormat/Info : Advanced Video CodecFormat profile : High@L3.2Format settings, CABAC : YesFormat settings, ReFrames : 5 framesCodec ID : avc1Codec ID/Info : Advanced Video CodingDuration : 2mn 4sBit rate : 577 KbpsWidth : 1 280 pixelsHeight : 720 pixelsDisplay aspect ratio : 16:9Frame rate mode : ConstantFrame rate : 25.000 fpsColor space : YUVChroma subsampling : 4:2:0Bit depth : 8 bitsScan type : ProgressiveBits/(Pixel*Frame) : 0.025Stream size : 8.59 MiB (69%)Writing library : x264 core 152 r10 ba24899Encoding settings : cabac=1 / ref=5 / deblock=1:0:0 / analyse=0x3:0x113 / me=hex / subme=8 / psy=1 / psy_rd=1.00:0.00 / mixed_ref=1 / me_range=16 / chroma_me=1 / trellis=2 / 8x8dct=1 / cqm=0 / deadzone=21,11 / fast_pskip=1 / chroma_qp_offset=-2 / threads=22 / lookahead_threads=3 / sliced_threads=0 / nr=0 / decimate=1 / interlaced=0 / bluray_compat=0 / stitchable=1 / constrained_intra=0 / bframes=3 / b_pyramid=2 / b_adapt=2 / b_bias=0 / direct=3 / weightb=1 / open_gop=0 / weightp=2 / keyint=infinite / keyint_min=25 / scenecut=40 / intra_refresh=0 / rc_lookahead=50 / rc=crf / mbtree=1 / crf=20.0 / qcomp=0.60 / qpmin=5 / qpmax=69 / qpstep=4 / vbv_maxrate=2750 / vbv_bufsize=7500 / crf_max=0.0 / nal_hrd=none / filler=0 / ip_ratio=1.40 / aq=1:1.00Encoded date : UTC 2017-12-24 11:18:49Tagged date : UTC 2017-12-24 11:18:49Color primaries : BT.709Transfer characteristics : BT.709Matrix coefficients : BT.709
AudioID : 2Format : AACFormat/Info : Advanced Audio CodecFormat profile : LCCodec ID : 40Duration : 2mn 4sBit rate mode : VariableBit rate : 256 KbpsChannel(s) : 2 channelsChannel positions : Front: L RSampling rate : 48.0 KHzCompression mode : LossyStream size : 3.81 MiB (31%)Encoded date : UTC 2017-12-24 11:18:49Tagged date : UTC 2017-12-24 11:18:49


[torrentc.info]_t_5545830.torrent
Торрент: Зарегистрирован ·  [ 2018-04-08 23:43 ] ·  7d41d8f2106347a4b337244c8b5cb4df4b148a66

16 KB

Статус: проверено
Скачан: 1 раз
Размер: 12 MB
Оценка: 
(Голосов: 0)
Сказали спасибо: 0  Спасибо
Похожие темы
[Профиль]    [ЛС]
Показать сообщения:    
Ответить на тему

Текущее время: Сегодня 12:33

Часовой пояс: GMT + 7



Вы не можете начинать темы
Вы не можете отвечать на сообщения
Вы не можете редактировать свои сообщения
Вы не можете удалять свои сообщения
Вы не можете голосовать в опросах
Вы не можете прикреплять файлы к сообщениям
Вы можете скачивать файлы