За гранью реальности (Александр Богуславский) [2018, приключения, фэнтези, WEB-DLRip]

Ответить на тему
Статистика раздачи [Обновить пиров]
Размер:  745 MB   |    Зарегистрирован:  8 месяцев 12 дней   |    Скачан:  2 раза

Полного источника не было: 8 месяцев 9 дней

 
   
 
 
 
Автор Сообщение

torrentc.info

Создавать темы 31-Мар-2018 23:12

[Цитировать]

За гранью реальности
Страна: Россия
Студия: KINODANZ
Жанр: приключения, фэнтези
Год выхода: 2018
Продолжительность: 01:42:16
Субтитры: нет-Режиссер: Александр Богуславский-В ролях: Милош Бикович, Антонио Бандерас, Любовь Аксёнова, Евгений Стычкин, Юрий Чурсин, Аристарх Венес, Петар Зекавица, Сергей Астахов, Никита Дювбанов, Михаил Михеев-Описание: Майкл, талантливый аферист, собирает команду людей с паранормальными способностями, чтобы ограбить казино. Однако все идет не по плану, и герои оказываются в смертельной опасности. Чтобы спасти их, Майклу придется действовать за гранью реальности — в загадочном мире подсознания, откуда проистекают сверхспособности его друзей.-Качество видео: WEB-DLRip
Формат файла: AVI
Видео: 688x288 (2.39:1), 25 fps, XviD build 73 ~880 kbps avg, 0.18 bit/pixel
Аудио: 48 kHz, MPEG Layer 3, 2 ch, ~128.00 kbps avg-Сэмпл-

MediaInfo

Format                      : AVI
Format/Info                 : Audio Video Interleave
File size                   : 745 MiB
Duration                    : 1 h 42 min
Overall bit rate            : 1 019 kb/s
Writing application         : VirtualDubMod 1.5.10.3 | www.virtualdub-fr.org || (build 2550/release)
Writing library             : VirtualDubMod build 2550/release
Video
ID                          : 0
Format                      : MPEG-4 Visual
Format profile              : Advanced Simple@L5
Format settings             : BVOP1 / Custom Matrix
Format settings, BVOP       : 1
Format settings, QPel       : No
Format settings, GMC        : No warppoints
Format settings, Matrix     : Custom
Codec ID                    : XVID
Codec ID/Hint               : XviD
Duration                    : 1 h 42 min
Bit rate                    : 881 kb/s
Width                       : 688 pixels
Height                      : 288 pixels
Display aspect ratio        : 2.40:1
Frame rate                  : 25.000 FPS
Color space                 : YUV
Chroma subsampling          : 4:2:0
Bit depth                   : 8 bits
Scan type                   : Progressive
Compression mode            : Lossy
Bits/(Pixel*Frame)          : 0.178
Stream size                 : 644 MiB (86%)
Writing library             : XviD 73
Audio
ID                          : 1
Format                      : MPEG Audio
Format version              : Version 1
Format profile              : Layer 3
Codec ID                    : 55
Codec ID/Hint               : MP3
Duration                    : 1 h 42 min
Bit rate mode               : Constant
Bit rate                    : 128 kb/s
Channel(s)                  : 2 channels
Sampling rate               : 48.0 kHz
Frame rate                  : 41.667 FPS (1152 SPF)
Compression mode            : Lossy
Stream size                 : 93.6 MiB (13%)
Alignment                   : Aligned on interleaves
Interleave, duration        : 40  ms (1.00 video frame)
Interleave, preload duratio : 504  ms
Writing library             : LAME3.99r
Encoding settings           : -m s -V 4 -q 2 -lowpass 17 -b 128

Скриншоты



[torrentc.info]_t_5542075.torrent
Торрент: Зарегистрирован ·  [ 2018-03-31 23:10 ] ·  b78438590e47c91864cb6e8ccacc87cbfbb93607

15 KB

Статус: проверено
Скачан: 2 раз
Размер: 745 MB
Оценка: 
(Голосов: 0)
Сказали спасибо: 0  Спасибо
Похожие темы
[Профиль]    [ЛС]
Показать сообщения:    
Ответить на тему

Текущее время: Сегодня 18:02

Часовой пояс: GMT + 7



Вы не можете начинать темы
Вы не можете отвечать на сообщения
Вы не можете редактировать свои сообщения
Вы не можете удалять свои сообщения
Вы не можете голосовать в опросах
Вы не можете прикреплять файлы к сообщениям
Вы можете скачивать файлы