(Avant-Prog / Jazz-Rock / Experimental) [WEB] Alfie Ryner - II - 2012, FLAC (tracks), lossless

Ответить на тему
Статистика раздачи [Обновить пиров]
Размер:  290 MB   |    Зарегистрирован:  4 месяца 17 дней   |    Скачан:  0 раз

Полного источника не было: Никогда

 
   
 
 
 
Автор Сообщение

torrentc.info

Создавать темы 30-Мар-2018 05:06

[Цитировать]

Alfie Ryner / II
[img=right]https://wmpics.pics/di-EJA2.jpg[/img]
Жанр: Avant-Prog / Jazz-Rock / Experimental
Носитель: WEB
Год издания: 2012
Издатель (лейбл): Web Release
Страна исполнителя (группы): France
Аудиокодек: FLAC (*.flac)
Тип рипа: tracks
Битрейт аудио: lossless
Продолжительность: 55:32 min
Источник (релизер): bandcamp.com
Наличие сканов в содержимом раздачи:
Треклист:
1. La Kunda. 4:55
2. Suleyman Aga. 7:40
3. Tango Toxico. 5:42
4. 5+5 = 9. 11:04
5. 40mg. 5:59
6. Hum. 8:52
7. RedRum. 11:02

DRM.log

foobar2000 1.3.8 / Dynamic Range Meter 1.1.1log date: 2018-03-30 00:54:35
--------------------------------------------------------------------------------Analyzed: Alfie Ryner / II--------------------------------------------------------------------------------
DR Peak RMS Duration Track--------------------------------------------------------------------------------DR10 -0.20 dB -13.34 dB 4:57 01-La KundaDR9 -0.20 dB -11.19 dB 7:43 02-Suleyman AgaDR12 -0.20 dB -14.38 dB 5:44 03-Tango ToxicoDR10 -0.20 dB -15.46 dB 11:06 04-5 + 5 = 9DR9 -0.20 dB -15.42 dB 6:01 05-40mgDR9 -0.20 dB -11.17 dB 8:55 06-HumDR8 -0.20 dB -11.87 dB 11:05 07-Red Rum--------------------------------------------------------------------------------
Number of tracks: 7Official DR value: DR10
Samplerate: 44100 HzChannels: 2Bits per sample: 16Bitrate: 736 kbpsCodec: FLAC================================================================================

Лог проверки качества

-----------------------
DON'T MODIFY THIS FILE
-----------------------
PERFORMER: auCDtect Task Manager, ver. 1.6.0 RC1 build 1.6.0.1Copyright (c) 2008-2010 y-soft. All rights reservedhttp://y-soft.org
ANALYZER: auCDtect: CD records authenticity detector, version 0.8.2Copyright (c) 2004 Oleg Berngardt. All rights reserved.Copyright (c) 2004 Alexander Djourik. All rights reserved.
FILE: 01 - La Kunda.flac Size: 29875583 Hash: 2CCE0E1DCA9DECAE7BBDB6D1D1A69FCF Accuracy: -m0 Conclusion: CDDA 100% Signature: 1318BD528AA46232B4887BED0AF669BC0E7D4399FILE: 02 - Suleyman Aga.flac Size: 46768151 Hash: F6191A8FF8E2A14E60000FEC3D302280 Accuracy: -m0 Conclusion: CDDA 100% Signature: BDDBE225D9177ED1F0CC89E3AC2338E10A8E47D1FILE: 03 - Tango Toxico.flac Size: 33360261 Hash: 299DB72BBBAD02E62C5EDB1448509817 Accuracy: -m0 Conclusion: CDDA 100% Signature: 3192C56C665E9972B3F830A87673D441C0D925ABFILE: 04 - 5 + 5 = 9.flac Size: 48556612 Hash: 9BBF7DEF5D2CB547C4D4392A5CBF8282 Accuracy: -m0 Conclusion: CDDA 100% Signature: 1C57DC446EAE791DC9766BEDC8F08806E5230A70FILE: 05 - 40mg.flac Size: 27109560 Hash: 9A7968E8D5022370DE3271FED270AF45 Accuracy: -m0 Conclusion: CDDA 100% Signature: E7207A5B8C79E580C0957EDBA086C61A495ADEA6FILE: 06 - Hum.flac Size: 56509688 Hash: 6570ABD65E0FA7BED37178DC73984B51 Accuracy: -m0 Conclusion: CDDA 100% Signature: DC029D8A2314599C776D4F743684500B43AEA3CDFILE: 07 - Red Rum.flac Size: 61184438 Hash: 86AE11B86AD5C7D11CD02B5ECBA37508 Accuracy: -m0 Conclusion: CDDA 100% Signature: 60D337461274506598DD6506A93C497294AA8AFB

Об альбоме (сборнике)

released December 4, 2012

Состав

- Paco Serrano Pozo / saxs, chant.
- Gérald Gimenez / guitares.
- Guillaume Gendre / contrebasse.
- Loris Pertoldi / batterie.
- Guillaume Pique / trombone.


[torrentc.info]_t_5541426.torrent
Торрент: Зарегистрирован ·  [ 2018-03-30 05:06 ] ·  ca1cc3913d2be75b4865fe4d886b0c01dbb0d2b4

12 KB

Статус: проверено
Скачан: 0 раз
Размер: 290 MB
Оценка: 
(Голосов: 0)
Сказали спасибо: 0  Спасибо
Похожие темы
[Профиль]    [ЛС]
Показать сообщения:    
Ответить на тему

Текущее время: Сегодня 21:01

Часовой пояс: GMT + 7



Вы не можете начинать темы
Вы не можете отвечать на сообщения
Вы не можете редактировать свои сообщения
Вы не можете удалять свои сообщения
Вы не можете голосовать в опросах
Вы не можете прикреплять файлы к сообщениям
Вы можете скачивать файлы