(Avant-Prog / Jazz-Rock / Experimental) [WEB] Alfie Ryner - Brain Surgery - 2014, FLAC (tracks), lossless

Ответить на тему
Статистика раздачи [Обновить пиров]
Размер:  221 MB   |    Зарегистрирован:  4 месяца 21 день   |    Скачан:  0 раз

Полного источника не было: Никогда

 
   
 
 
 
Автор Сообщение

torrentc.info

Создавать темы 30-Мар-2018 05:06

[Цитировать]

Alfie Ryner / Brain Surgery
[img=right]https://wmpics.pics/di-C7ZW.jpg[/img]
Жанр: Avant-Prog / Jazz-Rock / Experimental
Носитель: WEB
Год издания: 2014
Издатель (лейбл): Web Release
Страна исполнителя (группы): France
Аудиокодек: FLAC (*.flac)
Тип рипа: tracks
Битрейт аудио: lossless
Продолжительность: 38:08 min
Источник (релизер): bandcamp.com
Наличие сканов в содержимом раздачи:
Треклист:
1. Raging Chicken. 5:47
2. Douanier. 5:14
3. Brain Surgery. 6:54
4. Hypnose. 6:41
5. No Hay Mas. 6:23
6. Gradation. 7:06

DRM.log

foobar2000 1.3.8 / Dynamic Range Meter 1.1.1log date: 2018-03-30 00:53:42
--------------------------------------------------------------------------------Analyzed: Alfie Ryner / Brain Surgery--------------------------------------------------------------------------------
DR Peak RMS Duration Track--------------------------------------------------------------------------------DR9 -0.10 dB -12.02 dB 5:47 01-Raging ChickenDR9 -0.10 dB -11.73 dB 5:15 02-DouanierDR9 -0.10 dB -12.64 dB 6:55 03-Brain SurgeryDR10 -0.10 dB -12.34 dB 6:42 04-HypnoseDR9 -0.10 dB -12.96 dB 6:24 05-No Hay MasDR9 -0.10 dB -11.98 dB 7:06 06-Gradation--------------------------------------------------------------------------------
Number of tracks: 6Official DR value: DR9
Samplerate: 44100 HzChannels: 2Bits per sample: 16Bitrate: 868 kbpsCodec: FLAC================================================================================

Лог проверки качества

-----------------------
DON'T MODIFY THIS FILE
-----------------------
PERFORMER: auCDtect Task Manager, ver. 1.6.0 RC1 build 1.6.0.1Copyright (c) 2008-2010 y-soft. All rights reservedhttp://y-soft.org
ANALYZER: auCDtect: CD records authenticity detector, version 0.8.2Copyright (c) 2004 Oleg Berngardt. All rights reserved.Copyright (c) 2004 Alexander Djourik. All rights reserved.
FILE: 01 - Raging Chicken.flac Size: 36042219 Hash: F615766E3A058D56C92850636F082CED Accuracy: -m0 Conclusion: CDDA 100% Signature: 0903AEDFC2B9168A4CFC4852FD41144D7AFB89DEFILE: 02 - Douanier.flac Size: 33652265 Hash: 01FFC74AE9FBB0E6FB071405C6CFACA4 Accuracy: -m0 Conclusion: CDDA 100% Signature: 624795BE6174D6624A9ECA46FBF8C3B7B591E76BFILE: 03 - Brain Surgery.flac Size: 37427414 Hash: 076345FAEC6220804F5E59E380B45014 Accuracy: -m0 Conclusion: CDDA 100% Signature: DC22BF38CD11372B8859FD55AC46CA67D8D8CC5BFILE: 04 - Hypnose.flac Size: 38283918 Hash: DDE24789DF576AF01083E6DE11B6624E Accuracy: -m0 Conclusion: CDDA 100% Signature: 7C0E762B2EC281B9A6D92A746A129953F158B333FILE: 05 - No Hay Mas.flac Size: 38265090 Hash: 3A7E85FBC1ADCCF2C7D18EFB83F97A5B Accuracy: -m0 Conclusion: CDDA 100% Signature: 241936C80BADB2B97B72DEB76C977DCFDF4C3814FILE: 06 - Gradation.flac Size: 46388689 Hash: 9E3560023BDE35F1BBAA42A28567C185 Accuracy: -m0 Conclusion: CDDA 100% Signature: 565C9567FF9686B01886A5C96BF03FB79CB67C38

Об альбоме (сборнике)

released January 19, 2015


[torrentc.info]_t_5541429.torrent
Торрент: Зарегистрирован ·  [ 2018-03-30 05:06 ] ·  ae15a79832613c38933d0f381d7e903990beb68e

18 KB

Статус: проверено
Скачан: 0 раз
Размер: 221 MB
Оценка: 
(Голосов: 0)
Сказали спасибо: 0  Спасибо
Похожие темы
[Профиль]    [ЛС]
Показать сообщения:    
Ответить на тему

Текущее время: Сегодня 12:26

Часовой пояс: GMT + 7



Вы не можете начинать темы
Вы не можете отвечать на сообщения
Вы не можете редактировать свои сообщения
Вы не можете удалять свои сообщения
Вы не можете голосовать в опросах
Вы не можете прикреплять файлы к сообщениям
Вы можете скачивать файлы