(Noise Rock, Sludge Metal, Post Hardcore) [CD] VA - Shattered, Flattered & Covered - A Tribute To Unsane - 2017, [2xCD] FLAC (tracks), lossless

Ответить на тему
Статистика раздачи [Обновить пиров]
Размер:  833 MB   |    Зарегистрирован:  1 месяц 30 дней   |    Скачан:  0 раз

Полного источника не было: Никогда

 
   
 
 
 
Автор Сообщение

torrentc.info

Создавать темы 26-Мар-2018 14:07

[Цитировать]

Shattered, Flattered & Covered - A Tribute To Unsane
Жанр: Noise Rock, Sludge Metal, Post Hardcore
Носитель: CD
Страна-производитель диска (релиза): Poland
Год издания: 2017
Издатель (лейбл): Antena Krzyku
Номер по каталогу: none
Страна исполнителя (группы): Various
Аудиокодек: FLAC (*.flac)
Тип рипа: tracks
Битрейт аудио: lossless
Продолжительность: 02:03:35
Источник (релизер): Red, psychoboy
Наличие сканов в содержимом раздачи: нет

Credits
Mastered At – Absolute Sound, Milan
Arranged By, Producer, Mastered By – Manuel Veniani
Art Direction, Design – Michael Imhof
--

CD1

Продолжительность: 01:04:34
Трэклист:
01. Pushmen – Against The Grain
02. KEN Mode – Broke
03. Suma – Get Off My Back
04. Turin Horse – Blame Me
05. Buildings – Organ Donor
06. Maud – Committed
07. Faking – Alleged
08. Seawhores – Lead
09. Irk – Disdain
10. Fashion Week – Only Pain
11. Disasteratti – Stuck
12. Hawks – Body Bomb
13. Boy Division – Can’t See
14. Ex Wives – Hill
15. Cult Of Occult – This Plan-

Лог создания рипа

X Lossless Decoder version 20170729 (150.3)
XLD extraction logfile from 2017-09-18 17:16:44 +0200
Various Artists / Shattered, Flattered & Covered - A Tribute To Unsane
Used drive : (null) (null) (revision (null))Media type : Pressed CD
Ripper mode : XLD Secure RipperDisable audio cache : OK for the drive with a cache less than 1375KiBMake use of C2 pointers : NORead offset correction : 103Max retry count : 100Gap status : Analyzed, Appended
TOC of the extracted CD Track | Start | Length | Start sector | End sector --------------------------------------------------------- 1 | 00:00:00 | 04:42:61 | 0 | 21210 2 | 04:42:61 | 02:24:18 | 21211 | 32028 3 | 07:07:04 | 06:30:26 | 32029 | 61304 4 | 13:37:30 | 02:22:51 | 61305 | 72005 5 | 16:00:06 | 01:59:18 | 72006 | 80948 6 | 17:59:24 | 02:56:72 | 80949 | 94220 7 | 20:56:21 | 03:06:61 | 94221 | 108231 8 | 24:03:07 | 03:06:18 | 108232 | 122199 9 | 27:09:25 | 02:36:63 | 122200 | 133962 10 | 29:46:13 | 05:57:56 | 133963 | 160793 11 | 35:43:69 | 06:21:00 | 160794 | 189368 12 | 42:04:69 | 05:44:22 | 189369 | 215190 13 | 47:49:16 | 02:30:19 | 215191 | 226459 14 | 50:19:35 | 02:23:28 | 226460 | 237212 15 | 52:42:63 | 11:51:44 | 237213 | 290581
AccurateRip Summary Disc not found in AccurateRip DB.
All Tracks Album gain : -7.93 dB Peak : 0.977631 Statistics Read error : 0 Jitter error (maybe fixed) : 0 Retry sector count : 0 Damaged sector count : 0
Track 01 Filename : /Volumes/Ωmegα HD/Rip/Various Artists - Shattered, Flattered & Covered - A Tribute To Unsane (2017) [FLAC (level 8)]/01 - Pushmen - Against The Grain.flac /Volumes/Ωmegα HD/Rip/Various Artists - Shattered, Flattered & Covered - A Tribute To Unsane (2017) [LAME MP3 (VBR-new quality 0.0)]/01 - Pushmen - Against The Grain.mp3 Pre-gap length : 00:02:00
Track gain : -8.71 dB Peak : 0.977112 CRC32 hash (test run) : 33049CE5 CRC32 hash : 33049CE5 CRC32 hash (skip zero) : 3921D71A AccurateRip v1 signature : 1B637137 AccurateRip v2 signature : ED93847C ->Track not present in AccurateRip database. Statistics Read error : 0 Jitter error (maybe fixed) : 0 Retry sector count : 0 Damaged sector count : 0
Track 02 Filename : /Volumes/Ωmegα HD/Rip/Various Artists - Shattered, Flattered & Covered - A Tribute To Unsane (2017) [FLAC (level 8)]/02 - Ken Mode - Broke.flac /Volumes/Ωmegα HD/Rip/Various Artists - Shattered, Flattered & Covered - A Tribute To Unsane (2017) [LAME MP3 (VBR-new quality 0.0)]/02 - Ken Mode - Broke.mp3 Pre-gap length : 00:02:00
Track gain : -8.38 dB Peak : 0.951660 CRC32 hash (test run) : A5AF61DE CRC32 hash : A5AF61DE CRC32 hash (skip zero) : A3A11D8F AccurateRip v1 signature : 50719440 AccurateRip v2 signature : 2CDC9BEC ->Track not present in AccurateRip database. Statistics Read error : 0 Jitter error (maybe fixed) : 0 Retry sector count : 0 Damaged sector count : 0
Track 03 Filename : /Volumes/Ωmegα HD/Rip/Various Artists - Shattered, Flattered & Covered - A Tribute To Unsane (2017) [FLAC (level 8)]/03 - Suma - Get Off My Back.flac /Volumes/Ωmegα HD/Rip/Various Artists - Shattered, Flattered & Covered - A Tribute To Unsane (2017) [LAME MP3 (VBR-new quality 0.0)]/03 - Suma - Get Off My Back.mp3 Pre-gap length : 00:02:00
Track gain : -8.26 dB Peak : 0.977631 CRC32 hash (test run) : 9646A6C7 CRC32 hash : 9646A6C7 CRC32 hash (skip zero) : 7BBFB9A0 AccurateRip v1 signature : 8053755F AccurateRip v2 signature : B43E9191 ->Track not present in AccurateRip database. Statistics Read error : 0 Jitter error (maybe fixed) : 0 Retry sector count : 0 Damaged sector count : 0
Track 04 Filename : /Volumes/Ωmegα HD/Rip/Various Artists - Shattered, Flattered & Covered - A Tribute To Unsane (2017) [FLAC (level 8)]/04 - Turin Horse - Blame Me.flac /Volumes/Ωmegα HD/Rip/Various Artists - Shattered, Flattered & Covered - A Tribute To Unsane (2017) [LAME MP3 (VBR-new quality 0.0)]/04 - Turin Horse - Blame Me.mp3 Pre-gap length : 00:02:00
Track gain : -9.02 dB Peak : 0.894745 CRC32 hash (test run) : 10739D61 CRC32 hash : 10739D61 CRC32 hash (skip zero) : B5D1498E AccurateRip v1 signature : 4FA3D827 AccurateRip v2 signature : 4E8E7152 ->Track not present in AccurateRip database. Statistics Read error : 0 Jitter error (maybe fixed) : 0 Retry sector count : 0 Damaged sector count : 0
Track 05 Filename : /Volumes/Ωmegα HD/Rip/Various Artists - Shattered, Flattered & Covered - A Tribute To Unsane (2017) [FLAC (level 8)]/05 - Buildings - Organ Donor.flac /Volumes/Ωmegα HD/Rip/Various Artists - Shattered, Flattered & Covered - A Tribute To Unsane (2017) [LAME MP3 (VBR-new quality 0.0)]/05 - Buildings - Organ Donor.mp3 Pre-gap length : 00:02:00
Track gain : -9.41 dB Peak : 0.977631 CRC32 hash (test run) : 2DD38FAB CRC32 hash : 2DD38FAB CRC32 hash (skip zero) : 73AE3894 AccurateRip v1 signature : 147A4D42 AccurateRip v2 signature : 5CE4B105 ->Track not present in AccurateRip database. Statistics Read error : 0 Jitter error (maybe fixed) : 0 Retry sector count : 0 Damaged sector count : 0
Track 06 Filename : /Volumes/Ωmegα HD/Rip/Various Artists - Shattered, Flattered & Covered - A Tribute To Unsane (2017) [FLAC (level 8)]/06 - Maud - Committed.flac /Volumes/Ωmegα HD/Rip/Various Artists - Shattered, Flattered & Covered - A Tribute To Unsane (2017) [LAME MP3 (VBR-new quality 0.0)]/06 - Maud - Committed.mp3 Pre-gap length : 00:02:00
Track gain : -7.94 dB Peak : 0.937866 CRC32 hash (test run) : 7348AA43 CRC32 hash : 7348AA43 CRC32 hash (skip zero) : 915F7CED AccurateRip v1 signature : C5AFAF63 AccurateRip v2 signature : C986EBFE ->Track not present in AccurateRip database. Statistics Read error : 0 Jitter error (maybe fixed) : 0 Retry sector count : 0 Damaged sector count : 0
Track 07 Filename : /Volumes/Ωmegα HD/Rip/Various Artists - Shattered, Flattered & Covered - A Tribute To Unsane (2017) [FLAC (level 8)]/07 - Faking - Alleged.flac /Volumes/Ωmegα HD/Rip/Various Artists - Shattered, Flattered & Covered - A Tribute To Unsane (2017) [LAME MP3 (VBR-new quality 0.0)]/07 - Faking - Alleged.mp3 Pre-gap length : 00:02:00
Track gain : -6.41 dB Peak : 0.977081 CRC32 hash (test run) : B301AAE5 CRC32 hash : B301AAE5 CRC32 hash (skip zero) : 08D8FC42 AccurateRip v1 signature : 2233882D AccurateRip v2 signature : 48A775D9 ->Track not present in AccurateRip database. Statistics Read error : 0 Jitter error (maybe fixed) : 0 Retry sector count : 0 Damaged sector count : 0
Track 08 Filename : /Volumes/Ωmegα HD/Rip/Various Artists - Shattered, Flattered & Covered - A Tribute To Unsane (2017) [FLAC (level 8)]/08 - Seawhores - Lead.flac /Volumes/Ωmegα HD/Rip/Various Artists - Shattered, Flattered & Covered - A Tribute To Unsane (2017) [LAME MP3 (VBR-new quality 0.0)]/08 - Seawhores - Lead.mp3 Pre-gap length : 00:02:00
Track gain : -7.86 dB Peak : 0.927216 CRC32 hash (test run) : BB54D656 CRC32 hash : BB54D656 CRC32 hash (skip zero) : 76674252 AccurateRip v1 signature : C0A0EC6E AccurateRip v2 signature : EFC0B835 ->Track not present in AccurateRip database. Statistics Read error : 0 Jitter error (maybe fixed) : 0 Retry sector count : 0 Damaged sector count : 0
Track 09 Filename : /Volumes/Ωmegα HD/Rip/Various Artists - Shattered, Flattered & Covered - A Tribute To Unsane (2017) [FLAC (level 8)]/09 - Irk - Disdain.flac /Volumes/Ωmegα HD/Rip/Various Artists - Shattered, Flattered & Covered - A Tribute To Unsane (2017) [LAME MP3 (VBR-new quality 0.0)]/09 - Irk - Disdain.mp3 Pre-gap length : 00:02:00
Track gain : -7.05 dB Peak : 0.927582 CRC32 hash (test run) : 76A95262 CRC32 hash : 76A95262 CRC32 hash (skip zero) : E78945C8 AccurateRip v1 signature : BB83F128 AccurateRip v2 signature : 6AF06E16 ->Track not present in AccurateRip database. Statistics Read error : 0 Jitter error (maybe fixed) : 0 Retry sector count : 0 Damaged sector count : 0
Track 10 Filename : /Volumes/Ωmegα HD/Rip/Various Artists - Shattered, Flattered & Covered - A Tribute To Unsane (2017) [FLAC (level 8)]/10 - Fashion Week - Only Pain.flac /Volumes/Ωmegα HD/Rip/Various Artists - Shattered, Flattered & Covered - A Tribute To Unsane (2017) [LAME MP3 (VBR-new quality 0.0)]/10 - Fashion Week - Only Pain.mp3 Pre-gap length : 00:02:00
Track gain : -7.64 dB Peak : 0.971771 CRC32 hash (test run) : A74A5E7B CRC32 hash : A74A5E7B CRC32 hash (skip zero) : AE0507A4 AccurateRip v1 signature : 03B3B79B AccurateRip v2 signature : 4E4262D0 ->Track not present in AccurateRip database. Statistics Read error : 0 Jitter error (maybe fixed) : 0 Retry sector count : 0 Damaged sector count : 0
Track 11 Filename : /Volumes/Ωmegα HD/Rip/Various Artists - Shattered, Flattered & Covered - A Tribute To Unsane (2017) [FLAC (level 8)]/11 - Disasteratti - Stuck.flac /Volumes/Ωmegα HD/Rip/Various Artists - Shattered, Flattered & Covered - A Tribute To Unsane (2017) [LAME MP3 (VBR-new quality 0.0)]/11 - Disasteratti - Stuck.mp3 Pre-gap length : 00:02:00
Track gain : -4.58 dB Peak : 0.912659 CRC32 hash (test run) : DFA709A2 CRC32 hash : DFA709A2 CRC32 hash (skip zero) : D29AAD5F AccurateRip v1 signature : 0009D97B AccurateRip v2 signature : D466CB13 ->Track not present in AccurateRip database. Statistics Read error : 0 Jitter error (maybe fixed) : 0 Retry sector count : 0 Damaged sector count : 0
Track 12 Filename : /Volumes/Ωmegα HD/Rip/Various Artists - Shattered, Flattered & Covered - A Tribute To Unsane (2017) [FLAC (level 8)]/12 - Hawks - Body Bomb.flac /Volumes/Ωmegα HD/Rip/Various Artists - Shattered, Flattered & Covered - A Tribute To Unsane (2017) [LAME MP3 (VBR-new quality 0.0)]/12 - Hawks - Body Bomb.mp3 Pre-gap length : 00:02:00
Track gain : -7.12 dB Peak : 0.977264 CRC32 hash (test run) : AC09EB50 CRC32 hash : AC09EB50 CRC32 hash (skip zero) : D31CD15F AccurateRip v1 signature : ADCE267E AccurateRip v2 signature : 2BAB18B0 ->Track not present in AccurateRip database. Statistics Read error : 0 Jitter error (maybe fixed) : 0 Retry sector count : 0 Damaged sector count : 0
Track 13 Filename : /Volumes/Ωmegα HD/Rip/Various Artists - Shattered, Flattered & Covered - A Tribute To Unsane (2017) [FLAC (level 8)]/13 - Boy Division - Can’t See.flac /Volumes/Ωmegα HD/Rip/Various Artists - Shattered, Flattered & Covered - A Tribute To Unsane (2017) [LAME MP3 (VBR-new quality 0.0)]/13 - Boy Division - Can’t See.mp3 Pre-gap length : 00:02:00
Track gain : -6.00 dB Peak : 0.836731 CRC32 hash (test run) : 47451255 CRC32 hash : 47451255 CRC32 hash (skip zero) : CEEE9A5B AccurateRip v1 signature : EC453CAE AccurateRip v2 signature : 6B6E6F5F ->Track not present in AccurateRip database. Statistics Read error : 0 Jitter error (maybe fixed) : 0 Retry sector count : 0 Damaged sector count : 0
Track 14 Filename : /Volumes/Ωmegα HD/Rip/Various Artists - Shattered, Flattered & Covered - A Tribute To Unsane (2017) [FLAC (level 8)]/14 - Ex Wives - Hill.flac /Volumes/Ωmegα HD/Rip/Various Artists - Shattered, Flattered & Covered - A Tribute To Unsane (2017) [LAME MP3 (VBR-new quality 0.0)]/14 - Ex Wives - Hill.mp3 Pre-gap length : 00:02:00
Track gain : -8.50 dB Peak : 0.908844 CRC32 hash (test run) : F9886C4B CRC32 hash : F9886C4B CRC32 hash (skip zero) : F461E1A0 AccurateRip v1 signature : 4376EA3A AccurateRip v2 signature : F72B711E ->Track not present in AccurateRip database. Statistics Read error : 0 Jitter error (maybe fixed) : 0 Retry sector count : 0 Damaged sector count : 0
Track 15 Filename : /Volumes/Ωmegα HD/Rip/Various Artists - Shattered, Flattered & Covered - A Tribute To Unsane (2017) [FLAC (level 8)]/15 - Cult of Occult - This Plan.flac /Volumes/Ωmegα HD/Rip/Various Artists - Shattered, Flattered & Covered - A Tribute To Unsane (2017) [LAME MP3 (VBR-new quality 0.0)]/15 - Cult of Occult - This Plan.mp3 Pre-gap length : 00:02:00
Track gain : -7.64 dB Peak : 0.927094 CRC32 hash (test run) : B1BF9A01 CRC32 hash : B1BF9A01 CRC32 hash (skip zero) : 84A672A6 AccurateRip v1 signature : 2805318C AccurateRip v2 signature : 669F3436 ->Track not present in AccurateRip database. Statistics Read error : 0 Jitter error (maybe fixed) : 0 Retry sector count : 0 Damaged sector count : 0
No errors occurred
End of status report
-----BEGIN XLD SIGNATURE-----BnEd3.KbChBdKKWX7BZmZIr8Wclctn2M61in1w41p7pgwxN.X3qQjp2o1PgwJiuRmFT1v4uaxdRPrU0tDWIkfDpk6ViGbrcugsfq.Fu-----END XLD SIGNATURE-----

Содержание индексной карты (.CUE)

TITLE "Shattered, Flattered & Covered - A Tribute To Unsane"PERFORMER "Various Artists"REM GENRE "Punk"REM DATE "2017"REM DISCNUMBER 1REM TOTALDISCS 2REM DISCID CE0F220FREM REPLAYGAIN_ALBUM_GAIN -7.93 dBREM REPLAYGAIN_ALBUM_PEAK 0.977631REM COMPILATION TRUEFILE "01 - Pushmen - Against The Grain.flac" WAVE TRACK 01 AUDIO TITLE "Against The Grain" PERFORMER "Pushmen" REM REPLAYGAIN_TRACK_GAIN -8.71 dB REM REPLAYGAIN_TRACK_PEAK 0.977112 INDEX 01 00:00:00 TRACK 02 AUDIO TITLE "Broke" PERFORMER "Ken Mode" REM REPLAYGAIN_TRACK_GAIN -8.38 dB REM REPLAYGAIN_TRACK_PEAK 0.951660 INDEX 00 04:40:61FILE "02 - Ken Mode - Broke.flac" WAVE INDEX 01 00:00:00 TRACK 03 AUDIO TITLE "Get Off My Back" PERFORMER "Suma" REM REPLAYGAIN_TRACK_GAIN -8.26 dB REM REPLAYGAIN_TRACK_PEAK 0.977631 INDEX 00 02:22:18FILE "03 - Suma - Get Off My Back.flac" WAVE INDEX 01 00:00:00 TRACK 04 AUDIO TITLE "Blame Me" PERFORMER "Turin Horse" REM REPLAYGAIN_TRACK_GAIN -9.02 dB REM REPLAYGAIN_TRACK_PEAK 0.894745 INDEX 00 06:28:26FILE "04 - Turin Horse - Blame Me.flac" WAVE INDEX 01 00:00:00 TRACK 05 AUDIO TITLE "Organ Donor" PERFORMER "Buildings" REM REPLAYGAIN_TRACK_GAIN -9.41 dB REM REPLAYGAIN_TRACK_PEAK 0.977631 INDEX 00 02:20:51FILE "05 - Buildings - Organ Donor.flac" WAVE INDEX 01 00:00:00 TRACK 06 AUDIO TITLE "Committed" PERFORMER "Maud" REM REPLAYGAIN_TRACK_GAIN -7.94 dB REM REPLAYGAIN_TRACK_PEAK 0.937866 INDEX 00 01:57:18FILE "06 - Maud - Committed.flac" WAVE INDEX 01 00:00:00 TRACK 07 AUDIO TITLE "Alleged" PERFORMER "Faking" REM REPLAYGAIN_TRACK_GAIN -6.41 dB REM REPLAYGAIN_TRACK_PEAK 0.977081 INDEX 00 02:54:72FILE "07 - Faking - Alleged.flac" WAVE INDEX 01 00:00:00 TRACK 08 AUDIO TITLE "Lead" PERFORMER "Seawhores" REM REPLAYGAIN_TRACK_GAIN -7.86 dB REM REPLAYGAIN_TRACK_PEAK 0.927216 INDEX 00 03:04:61FILE "08 - Seawhores - Lead.flac" WAVE INDEX 01 00:00:00 TRACK 09 AUDIO TITLE "Disdain" PERFORMER "Irk" REM REPLAYGAIN_TRACK_GAIN -7.05 dB REM REPLAYGAIN_TRACK_PEAK 0.927582 INDEX 00 03:04:18FILE "09 - Irk - Disdain.flac" WAVE INDEX 01 00:00:00 TRACK 10 AUDIO TITLE "Only Pain" PERFORMER "Fashion Week" REM REPLAYGAIN_TRACK_GAIN -7.64 dB REM REPLAYGAIN_TRACK_PEAK 0.971771 INDEX 00 02:34:63FILE "10 - Fashion Week - Only Pain.flac" WAVE INDEX 01 00:00:00 TRACK 11 AUDIO TITLE "Stuck" PERFORMER "Disasteratti" REM REPLAYGAIN_TRACK_GAIN -4.58 dB REM REPLAYGAIN_TRACK_PEAK 0.912659 INDEX 00 05:55:56FILE "11 - Disasteratti - Stuck.flac" WAVE INDEX 01 00:00:00 TRACK 12 AUDIO TITLE "Body Bomb" PERFORMER "Hawks" REM REPLAYGAIN_TRACK_GAIN -7.12 dB REM REPLAYGAIN_TRACK_PEAK 0.977264 INDEX 00 06:19:00FILE "12 - Hawks - Body Bomb.flac" WAVE INDEX 01 00:00:00 TRACK 13 AUDIO TITLE "Can’t See" PERFORMER "Boy Division" REM REPLAYGAIN_TRACK_GAIN -6.00 dB REM REPLAYGAIN_TRACK_PEAK 0.836731 INDEX 00 05:42:22FILE "13 - Boy Division - Can’t See.flac" WAVE INDEX 01 00:00:00 TRACK 14 AUDIO TITLE "Hill" PERFORMER "Ex Wives" REM REPLAYGAIN_TRACK_GAIN -8.50 dB REM REPLAYGAIN_TRACK_PEAK 0.908844 INDEX 00 02:28:19FILE "14 - Ex Wives - Hill.flac" WAVE INDEX 01 00:00:00 TRACK 15 AUDIO TITLE "This Plan" PERFORMER "Cult of Occult" REM REPLAYGAIN_TRACK_GAIN -7.64 dB REM REPLAYGAIN_TRACK_PEAK 0.927094 INDEX 00 02:21:28FILE "15 - Cult of Occult - This Plan.flac" WAVE INDEX 01 00:00:00

Лог проверки качества

fooCDtect - foobar2000 + auCDtect, baralgin.
auCDtect: CD records authenticity detector, version 0.8.2Copyright (c) 2004 Oleg Berngardt. All rights reserved.Copyright (c) 2004 Alexander Djourik. All rights reserved.
mode: 0
=========================================== Track: 01. Against The Grain Quality: CDDA 100%=========================================== Track: 02. Broke Quality: CDDA 100%=========================================== Track: 03. Get Off My Back Quality: CDDA 100%=========================================== Track: 04. Blame Me Quality: CDDA 100%=========================================== Track: 05. Organ Donor Quality: CDDA 100%=========================================== Track: 06. Committed Quality: CDDA 100%=========================================== Track: 07. Alleged Quality: CDDA 100%=========================================== Track: 08. Lead Quality: CDDA 100%=========================================== Track: 09. Disdain Quality: CDDA 100%=========================================== Track: 10. Only Pain Quality: CDDA 100%=========================================== Track: 11. Stuck Quality: CDDA 100%=========================================== Track: 12. Body Bomb Quality: CDDA 100%=========================================== Track: 13. Can’t See Quality: CDDA 100%=========================================== Track: 14. Hill Quality: CDDA 100%=========================================== Track: 15. This Plan Quality: CDDA 100%===========================================

CD2

Продолжительность: 00:59:00
Трэклист:
01. Grizzlor – Sick
02. Membrane – Out
03. Throat – Get Away
04. Grizzly Daughter – Vandal-X
05. Sinking Suns – Exterminator
06. Silent Front – Scrape
07. Beige Eagle Boys – Streetsweeper (feat. Karen Neal)
08. Child Bite – Don’t
09. Sofy Major – Backslide
10. Wayward – Bath
11. Multicult – Trench
12. Nudist – Over Me
13. Flying Disk – Empty Cartridge
14. Cani Sciorrì – Release
15. Lleroy – Understand
16. Joe 4 – Ruin / Swim
17. Tom Violence – Burn [Unlisted]-

Лог создания рипа

X Lossless Decoder version 20170729 (150.3)
XLD extraction logfile from 2017-09-18 18:42:29 +0200
Various Artists / Shattered, Flattered & Covered - A Tribute To Unsane
Used drive : (null) (null) (revision (null))Media type : Pressed CD
Ripper mode : XLD Secure RipperDisable audio cache : OK for the drive with a cache less than 1375KiBMake use of C2 pointers : NORead offset correction : 103Max retry count : 100Gap status : Analyzed, Appended
TOC of the extracted CD Track | Start | Length | Start sector | End sector --------------------------------------------------------- 1 | 00:00:00 | 02:58:11 | 0 | 13360 2 | 02:58:11 | 02:56:37 | 13361 | 26597 3 | 05:54:48 | 04:43:18 | 26598 | 47840 4 | 10:37:66 | 02:58:62 | 47841 | 61252 5 | 13:36:53 | 04:09:25 | 61253 | 79952 6 | 17:46:03 | 03:26:58 | 79953 | 95460 7 | 21:12:61 | 02:14:13 | 95461 | 105523 8 | 23:26:74 | 03:31:70 | 105524 | 121418 9 | 26:58:69 | 04:49:48 | 121419 | 143141 10 | 31:48:42 | 03:01:37 | 143142 | 156753 11 | 34:50:04 | 03:47:03 | 156754 | 173781 12 | 38:37:07 | 04:10:18 | 173782 | 192549 13 | 42:47:25 | 02:36:55 | 192550 | 204304 14 | 45:24:05 | 02:21:27 | 204305 | 214906 15 | 47:45:32 | 03:34:29 | 214907 | 230985 16 | 51:19:61 | 03:49:45 | 230986 | 248205 17 | 55:09:31 | 03:51:40 | 248206 | 265570
AccurateRip Summary Disc not found in AccurateRip DB.
All Tracks Album gain : -8.29 dB Peak : 0.977081 Statistics Read error : 0 Jitter error (maybe fixed) : 0 Retry sector count : 0 Damaged sector count : 0
Track 01 Filename : /Volumes/Ωmegα HD/Rip/Various Artists - Shattered, Flattered & Covered - A Tribute To Unsane (2017) [FLAC (level 8)]/01 - Grizzlor - Sick.flac /Volumes/Ωmegα HD/Rip/Various Artists - Shattered, Flattered & Covered - A Tribute To Unsane (2017) [LAME MP3 (VBR-new quality 0.0)]/01 - Grizzlor - Sick.mp3 Pre-gap length : 00:02:00
Track gain : -7.33 dB Peak : 0.934265 CRC32 hash (test run) : 4F0BDEFF CRC32 hash : 4F0BDEFF CRC32 hash (skip zero) : E5E13E2F AccurateRip v1 signature : 2946C3E7 AccurateRip v2 signature : 32131E43 ->Track not present in AccurateRip database. Statistics Read error : 0 Jitter error (maybe fixed) : 0 Retry sector count : 0 Damaged sector count : 0
Track 02 Filename : /Volumes/Ωmegα HD/Rip/Various Artists - Shattered, Flattered & Covered - A Tribute To Unsane (2017) [FLAC (level 8)]/02 - Membrane - Out.flac /Volumes/Ωmegα HD/Rip/Various Artists - Shattered, Flattered & Covered - A Tribute To Unsane (2017) [LAME MP3 (VBR-new quality 0.0)]/02 - Membrane - Out.mp3 Pre-gap length : 00:01:00
Track gain : -8.23 dB Peak : 0.977081 CRC32 hash (test run) : D411ED40 CRC32 hash : D411ED40 CRC32 hash (skip zero) : 4D153C89 AccurateRip v1 signature : 77C2872F AccurateRip v2 signature : CA17A0DD ->Track not present in AccurateRip database. Statistics Read error : 0 Jitter error (maybe fixed) : 0 Retry sector count : 0 Damaged sector count : 0
Track 03 Filename : /Volumes/Ωmegα HD/Rip/Various Artists - Shattered, Flattered & Covered - A Tribute To Unsane (2017) [FLAC (level 8)]/03 - Throat - Get Away.flac /Volumes/Ωmegα HD/Rip/Various Artists - Shattered, Flattered & Covered - A Tribute To Unsane (2017) [LAME MP3 (VBR-new quality 0.0)]/03 - Throat - Get Away.mp3 Pre-gap length : 00:01:00
Track gain : -7.92 dB Peak : 0.927185 CRC32 hash (test run) : 80B69E92 CRC32 hash : 80B69E92 CRC32 hash (skip zero) : 3BEFA90F AccurateRip v1 signature : 7FD73A21 AccurateRip v2 signature : 104E99C0 ->Track not present in AccurateRip database. Statistics Read error : 0 Jitter error (maybe fixed) : 0 Retry sector count : 0 Damaged sector count : 0
Track 04 Filename : /Volumes/Ωmegα HD/Rip/Various Artists - Shattered, Flattered & Covered - A Tribute To Unsane (2017) [FLAC (level 8)]/04 - Grizzly Daughter - Vandal-X.flac /Volumes/Ωmegα HD/Rip/Various Artists - Shattered, Flattered & Covered - A Tribute To Unsane (2017) [LAME MP3 (VBR-new quality 0.0)]/04 - Grizzly Daughter - Vandal-X.mp3 Pre-gap length : 00:01:00
Track gain : -8.18 dB Peak : 0.915894 CRC32 hash (test run) : EB1678DB CRC32 hash : EB1678DB CRC32 hash (skip zero) : B6205922 AccurateRip v1 signature : ED97301D AccurateRip v2 signature : 9E214291 ->Track not present in AccurateRip database. Statistics Read error : 0 Jitter error (maybe fixed) : 0 Retry sector count : 0 Damaged sector count : 0
Track 05 Filename : /Volumes/Ωmegα HD/Rip/Various Artists - Shattered, Flattered & Covered - A Tribute To Unsane (2017) [FLAC (level 8)]/05 - Sinking Suns - Exterminator.flac /Volumes/Ωmegα HD/Rip/Various Artists - Shattered, Flattered & Covered - A Tribute To Unsane (2017) [LAME MP3 (VBR-new quality 0.0)]/05 - Sinking Suns - Exterminator.mp3 Pre-gap length : 00:01:00
Track gain : -7.71 dB Peak : 0.921722 CRC32 hash (test run) : ADF27314 CRC32 hash : ADF27314 CRC32 hash (skip zero) : A3D7FCC3 AccurateRip v1 signature : FC1F4805 AccurateRip v2 signature : E385FEDF ->Track not present in AccurateRip database. Statistics Read error : 0 Jitter error (maybe fixed) : 0 Retry sector count : 0 Damaged sector count : 0
Track 06 Filename : /Volumes/Ωmegα HD/Rip/Various Artists - Shattered, Flattered & Covered - A Tribute To Unsane (2017) [FLAC (level 8)]/06 - Silent Front - Scrape.flac /Volumes/Ωmegα HD/Rip/Various Artists - Shattered, Flattered & Covered - A Tribute To Unsane (2017) [LAME MP3 (VBR-new quality 0.0)]/06 - Silent Front - Scrape.mp3 Pre-gap length : 00:01:00
Track gain : -6.97 dB Peak : 0.970398 CRC32 hash (test run) : 91F40147 CRC32 hash : 91F40147 CRC32 hash (skip zero) : DE5D6F9E AccurateRip v1 signature : AA766104 AccurateRip v2 signature : 9064B8C1 ->Track not present in AccurateRip database. Statistics Read error : 0 Jitter error (maybe fixed) : 0 Retry sector count : 0 Damaged sector count : 0
Track 07 Filename : /Volumes/Ωmegα HD/Rip/Various Artists - Shattered, Flattered & Covered - A Tribute To Unsane (2017) [FLAC (level 8)]/07 - Beige Eagle Boys - Streetsweeper.flac /Volumes/Ωmegα HD/Rip/Various Artists - Shattered, Flattered & Covered - A Tribute To Unsane (2017) [LAME MP3 (VBR-new quality 0.0)]/07 - Beige Eagle Boys - Streetsweeper.mp3 Pre-gap length : 00:01:00
Track gain : -6.89 dB Peak : 0.927246 CRC32 hash (test run) : 56681A27 CRC32 hash : 56681A27 CRC32 hash (skip zero) : 3DC5DD67 AccurateRip v1 signature : D918E276 AccurateRip v2 signature : C9760CF9 ->Track not present in AccurateRip database. Statistics Read error : 0 Jitter error (maybe fixed) : 0 Retry sector count : 0 Damaged sector count : 0
Track 08 Filename : /Volumes/Ωmegα HD/Rip/Various Artists - Shattered, Flattered & Covered - A Tribute To Unsane (2017) [FLAC (level 8)]/08 - Child Bite - Don’t.flac /Volumes/Ωmegα HD/Rip/Various Artists - Shattered, Flattered & Covered - A Tribute To Unsane (2017) [LAME MP3 (VBR-new quality 0.0)]/08 - Child Bite - Don’t.mp3 Pre-gap length : 00:01:00
Track gain : -7.61 dB Peak : 0.931274 CRC32 hash (test run) : 766D3880 CRC32 hash : 766D3880 CRC32 hash (skip zero) : F71E3E8C AccurateRip v1 signature : D77E44B6 AccurateRip v2 signature : DD0838DB ->Track not present in AccurateRip database. Statistics Read error : 0 Jitter error (maybe fixed) : 0 Retry sector count : 0 Damaged sector count : 0
Track 09 Filename : /Volumes/Ωmegα HD/Rip/Various Artists - Shattered, Flattered & Covered - A Tribute To Unsane (2017) [FLAC (level 8)]/09 - Sofy Major - Backslide.flac /Volumes/Ωmegα HD/Rip/Various Artists - Shattered, Flattered & Covered - A Tribute To Unsane (2017) [LAME MP3 (VBR-new quality 0.0)]/09 - Sofy Major - Backslide.mp3 Pre-gap length : 00:01:00
Track gain : -7.46 dB Peak : 0.923340 CRC32 hash (test run) : 486573E6 CRC32 hash : 486573E6 CRC32 hash (skip zero) : 2BD63594 AccurateRip v1 signature : 32512A15 AccurateRip v2 signature : B6360C15 ->Track not present in AccurateRip database. Statistics Read error : 0 Jitter error (maybe fixed) : 0 Retry sector count : 0 Damaged sector count : 0
Track 10 Filename : /Volumes/Ωmegα HD/Rip/Various Artists - Shattered, Flattered & Covered - A Tribute To Unsane (2017) [FLAC (level 8)]/10 - Wayward - Bath.flac /Volumes/Ωmegα HD/Rip/Various Artists - Shattered, Flattered & Covered - A Tribute To Unsane (2017) [LAME MP3 (VBR-new quality 0.0)]/10 - Wayward - Bath.mp3 Pre-gap length : 00:01:00
Track gain : -8.53 dB Peak : 0.968903 CRC32 hash (test run) : 5096C85B CRC32 hash : 5096C85B CRC32 hash (skip zero) : ED4EAE26 AccurateRip v1 signature : C0F57A14 AccurateRip v2 signature : AC9CBED0 ->Track not present in AccurateRip database. Statistics Read error : 0 Jitter error (maybe fixed) : 0 Retry sector count : 0 Damaged sector count : 0
Track 11 Filename : /Volumes/Ωmegα HD/Rip/Various Artists - Shattered, Flattered & Covered - A Tribute To Unsane (2017) [FLAC (level 8)]/11 - Multicult - Trench.flac /Volumes/Ωmegα HD/Rip/Various Artists - Shattered, Flattered & Covered - A Tribute To Unsane (2017) [LAME MP3 (VBR-new quality 0.0)]/11 - Multicult - Trench.mp3 Pre-gap length : 00:01:00
Track gain : -7.56 dB Peak : 0.917297 CRC32 hash (test run) : D9670C9A CRC32 hash : D9670C9A CRC32 hash (skip zero) : B92F80EF AccurateRip v1 signature : 5DB14A12 AccurateRip v2 signature : B4B68B19 ->Track not present in AccurateRip database. Statistics Read error : 0 Jitter error (maybe fixed) : 0 Retry sector count : 0 Damaged sector count : 0
Track 12 Filename : /Volumes/Ωmegα HD/Rip/Various Artists - Shattered, Flattered & Covered - A Tribute To Unsane (2017) [FLAC (level 8)]/12 - Nudist - Over Me.flac /Volumes/Ωmegα HD/Rip/Various Artists - Shattered, Flattered & Covered - A Tribute To Unsane (2017) [LAME MP3 (VBR-new quality 0.0)]/12 - Nudist - Over Me.mp3 Pre-gap length : 00:01:00
Track gain : -10.36 dB Peak : 0.930084 CRC32 hash (test run) : 850E27D7 CRC32 hash : 850E27D7 CRC32 hash (skip zero) : 37DA9373 AccurateRip v1 signature : 83601C66 AccurateRip v2 signature : D65EF417 ->Track not present in AccurateRip database. Statistics Read error : 0 Jitter error (maybe fixed) : 0 Retry sector count : 0 Damaged sector count : 0
Track 13 Filename : /Volumes/Ωmegα HD/Rip/Various Artists - Shattered, Flattered & Covered - A Tribute To Unsane (2017) [FLAC (level 8)]/13 - Flying Disk - Empty Cartridge.flac /Volumes/Ωmegα HD/Rip/Various Artists - Shattered, Flattered & Covered - A Tribute To Unsane (2017) [LAME MP3 (VBR-new quality 0.0)]/13 - Flying Disk - Empty Cartridge.mp3 Pre-gap length : 00:01:00
Track gain : -8.59 dB Peak : 0.937927 CRC32 hash (test run) : B9200816 CRC32 hash : B9200816 CRC32 hash (skip zero) : 361F9436 AccurateRip v1 signature : C1213EC4 AccurateRip v2 signature : 6F242FDD ->Track not present in AccurateRip database. Statistics Read error : 0 Jitter error (maybe fixed) : 0 Retry sector count : 0 Damaged sector count : 0
Track 14 Filename : /Volumes/Ωmegα HD/Rip/Various Artists - Shattered, Flattered & Covered - A Tribute To Unsane (2017) [FLAC (level 8)]/14 - Cani Sciorrì - Release.flac /Volumes/Ωmegα HD/Rip/Various Artists - Shattered, Flattered & Covered - A Tribute To Unsane (2017) [LAME MP3 (VBR-new quality 0.0)]/14 - Cani Sciorrì - Release.mp3 Pre-gap length : 00:01:00
Track gain : -8.99 dB Peak : 0.924316 CRC32 hash (test run) : 669C8FD0 CRC32 hash : 669C8FD0 CRC32 hash (skip zero) : 6F3A8F9B AccurateRip v1 signature : DFE27A8E AccurateRip v2 signature : 47D7C3F7 ->Track not present in AccurateRip database. Statistics Read error : 0 Jitter error (maybe fixed) : 0 Retry sector count : 0 Damaged sector count : 0
Track 15 Filename : /Volumes/Ωmegα HD/Rip/Various Artists - Shattered, Flattered & Covered - A Tribute To Unsane (2017) [FLAC (level 8)]/15 - Lleroy - Understand.flac /Volumes/Ωmegα HD/Rip/Various Artists - Shattered, Flattered & Covered - A Tribute To Unsane (2017) [LAME MP3 (VBR-new quality 0.0)]/15 - Lleroy - Understand.mp3 Pre-gap length : 00:01:00
Track gain : -6.48 dB Peak : 0.927277 CRC32 hash (test run) : E2C54DA5 CRC32 hash : E2C54DA5 CRC32 hash (skip zero) : 49899C04 AccurateRip v1 signature : DB51F33E AccurateRip v2 signature : 5D9BC826 ->Track not present in AccurateRip database. Statistics Read error : 0 Jitter error (maybe fixed) : 0 Retry sector count : 0 Damaged sector count : 0
Track 16 Filename : /Volumes/Ωmegα HD/Rip/Various Artists - Shattered, Flattered & Covered - A Tribute To Unsane (2017) [FLAC (level 8)]/16 - Joe 4 - Ruin / Swim.flac /Volumes/Ωmegα HD/Rip/Various Artists - Shattered, Flattered & Covered - A Tribute To Unsane (2017) [LAME MP3 (VBR-new quality 0.0)]/16 - Joe 4 - Ruin / Swim.mp3 Pre-gap length : 00:01:00
Track gain : -8.98 dB Peak : 0.927368 CRC32 hash (test run) : 2792C630 CRC32 hash : 2792C630 CRC32 hash (skip zero) : 3FFA3DD4 AccurateRip v1 signature : B8550337 AccurateRip v2 signature : 4DA3B89E ->Track not present in AccurateRip database. Statistics Read error : 0 Jitter error (maybe fixed) : 0 Retry sector count : 0 Damaged sector count : 0
Track 17 Filename : /Volumes/Ωmegα HD/Rip/Various Artists - Shattered, Flattered & Covered - A Tribute To Unsane (2017) [FLAC (level 8)]/17 - Tom Violence - Burn [Unlisted].flac /Volumes/Ωmegα HD/Rip/Various Artists - Shattered, Flattered & Covered - A Tribute To Unsane (2017) [LAME MP3 (VBR-new quality 0.0)]/17 - Tom Violence - Burn [Unlisted].mp3 Pre-gap length : 00:01:00
Track gain : -4.53 dB Peak : 0.885468 CRC32 hash (test run) : 5CDE1E80 CRC32 hash : 5CDE1E80 CRC32 hash (skip zero) : 0B4324A0 AccurateRip v1 signature : B9A1A709 AccurateRip v2 signature : B0417014 ->Track not present in AccurateRip database. Statistics Read error : 0 Jitter error (maybe fixed) : 0 Retry sector count : 0 Damaged sector count : 0
No errors occurred
End of status report
-----BEGIN XLD SIGNATURE-----olibMV76d8MFNFi9vpwuci8gMr8yEZyFqjU6dgQwoOv9tgP_EK0.IpqB1pKflwMSbOkMuyZtLqHTN8dAiNjTrPO7hUD13k021adqE_S-----END XLD SIGNATURE-----

Содержание индексной карты (.CUE)

TITLE "Shattered, Flattered & Covered - A Tribute To Unsane"PERFORMER "Various Artists"REM GENRE "Punk"REM DATE "2017"REM DISCNUMBER 2REM TOTALDISCS 2REM DISCID E80DD411REM REPLAYGAIN_ALBUM_GAIN -8.29 dBREM REPLAYGAIN_ALBUM_PEAK 0.977081REM COMPILATION TRUEFILE "01 - Grizzlor - Sick.flac" WAVE TRACK 01 AUDIO TITLE "Sick" PERFORMER "Grizzlor" REM REPLAYGAIN_TRACK_GAIN -7.33 dB REM REPLAYGAIN_TRACK_PEAK 0.934265 INDEX 01 00:00:00 TRACK 02 AUDIO TITLE "Out" PERFORMER "Membrane" REM REPLAYGAIN_TRACK_GAIN -8.23 dB REM REPLAYGAIN_TRACK_PEAK 0.977081 INDEX 00 02:57:11FILE "02 - Membrane - Out.flac" WAVE INDEX 01 00:00:00 TRACK 03 AUDIO TITLE "Get Away" PERFORMER "Throat" REM REPLAYGAIN_TRACK_GAIN -7.92 dB REM REPLAYGAIN_TRACK_PEAK 0.927185 INDEX 00 02:55:37FILE "03 - Throat - Get Away.flac" WAVE INDEX 01 00:00:00 TRACK 04 AUDIO TITLE "Vandal-X" PERFORMER "Grizzly Daughter" REM REPLAYGAIN_TRACK_GAIN -8.18 dB REM REPLAYGAIN_TRACK_PEAK 0.915894 INDEX 00 04:42:18FILE "04 - Grizzly Daughter - Vandal-X.flac" WAVE INDEX 01 00:00:00 TRACK 05 AUDIO TITLE "Exterminator" PERFORMER "Sinking Suns" REM REPLAYGAIN_TRACK_GAIN -7.71 dB REM REPLAYGAIN_TRACK_PEAK 0.921722 INDEX 00 02:57:62FILE "05 - Sinking Suns - Exterminator.flac" WAVE INDEX 01 00:00:00 TRACK 06 AUDIO TITLE "Scrape" PERFORMER "Silent Front" REM REPLAYGAIN_TRACK_GAIN -6.97 dB REM REPLAYGAIN_TRACK_PEAK 0.970398 INDEX 00 04:08:25FILE "06 - Silent Front - Scrape.flac" WAVE INDEX 01 00:00:00 TRACK 07 AUDIO TITLE "Streetsweeper" PERFORMER "Beige Eagle Boys" REM REPLAYGAIN_TRACK_GAIN -6.89 dB REM REPLAYGAIN_TRACK_PEAK 0.927246 INDEX 00 03:25:58FILE "07 - Beige Eagle Boys - Streetsweeper.flac" WAVE INDEX 01 00:00:00 TRACK 08 AUDIO TITLE "Don’t" PERFORMER "Child Bite" REM REPLAYGAIN_TRACK_GAIN -7.61 dB REM REPLAYGAIN_TRACK_PEAK 0.931274 INDEX 00 02:13:13FILE "08 - Child Bite - Don’t.flac" WAVE INDEX 01 00:00:00 TRACK 09 AUDIO TITLE "Backslide" PERFORMER "Sofy Major" REM REPLAYGAIN_TRACK_GAIN -7.46 dB REM REPLAYGAIN_TRACK_PEAK 0.923340 INDEX 00 03:30:70FILE "09 - Sofy Major - Backslide.flac" WAVE INDEX 01 00:00:00 TRACK 10 AUDIO TITLE "Bath" PERFORMER "Wayward" REM REPLAYGAIN_TRACK_GAIN -8.53 dB REM REPLAYGAIN_TRACK_PEAK 0.968903 INDEX 00 04:48:48FILE "10 - Wayward - Bath.flac" WAVE INDEX 01 00:00:00 TRACK 11 AUDIO TITLE "Trench" PERFORMER "Multicult" REM REPLAYGAIN_TRACK_GAIN -7.56 dB REM REPLAYGAIN_TRACK_PEAK 0.917297 INDEX 00 03:00:37FILE "11 - Multicult - Trench.flac" WAVE INDEX 01 00:00:00 TRACK 12 AUDIO TITLE "Over Me" PERFORMER "Nudist" REM REPLAYGAIN_TRACK_GAIN -10.36 dB REM REPLAYGAIN_TRACK_PEAK 0.930084 INDEX 00 03:46:03FILE "12 - Nudist - Over Me.flac" WAVE INDEX 01 00:00:00 TRACK 13 AUDIO TITLE "Empty Cartridge" PERFORMER "Flying Disk" REM REPLAYGAIN_TRACK_GAIN -8.59 dB REM REPLAYGAIN_TRACK_PEAK 0.937927 INDEX 00 04:09:18FILE "13 - Flying Disk - Empty Cartridge.flac" WAVE INDEX 01 00:00:00 TRACK 14 AUDIO TITLE "Release" PERFORMER "Cani Sciorrì" REM REPLAYGAIN_TRACK_GAIN -8.99 dB REM REPLAYGAIN_TRACK_PEAK 0.924316 INDEX 00 02:35:55FILE "14 - Cani Sciorrì - Release.flac" WAVE INDEX 01 00:00:00 TRACK 15 AUDIO TITLE "Understand" PERFORMER "Lleroy" REM REPLAYGAIN_TRACK_GAIN -6.48 dB REM REPLAYGAIN_TRACK_PEAK 0.927277 INDEX 00 02:20:27FILE "15 - Lleroy - Understand.flac" WAVE INDEX 01 00:00:00 TRACK 16 AUDIO TITLE "Ruin / Swim" PERFORMER "Joe 4" REM REPLAYGAIN_TRACK_GAIN -8.98 dB REM REPLAYGAIN_TRACK_PEAK 0.927368 INDEX 00 03:33:29FILE "16 - Joe 4 - Ruin / Swim.flac" WAVE INDEX 01 00:00:00 TRACK 17 AUDIO TITLE "Burn [Unlisted]" PERFORMER "Tom Violence" REM REPLAYGAIN_TRACK_GAIN -4.53 dB REM REPLAYGAIN_TRACK_PEAK 0.885468 INDEX 00 03:48:45FILE "17 - Tom Violence - Burn [Unlisted].flac" WAVE INDEX 01 00:00:00

Лог проверки качества

fooCDtect - foobar2000 + auCDtect, baralgin.
auCDtect: CD records authenticity detector, version 0.8.2Copyright (c) 2004 Oleg Berngardt. All rights reserved.Copyright (c) 2004 Alexander Djourik. All rights reserved.
mode: 0
=========================================== Track: 01. Sick Quality: CDDA 100%=========================================== Track: 02. Out Quality: CDDA 100%=========================================== Track: 03. Get Away Quality: CDDA 100%=========================================== Track: 04. Vandal-X Quality: CDDA 100%=========================================== Track: 05. Exterminator Quality: CDDA 100%=========================================== Track: 06. Scrape Quality: CDDA 100%=========================================== Track: 07. Streetsweeper Quality: CDDA 100%=========================================== Track: 08. Don’t Quality: CDDA 100%=========================================== Track: 09. Backslide Quality: CDDA 99%=========================================== Track: 10. Bath Quality: CDDA 100%=========================================== Track: 11. Trench Quality: CDDA 100%=========================================== Track: 12. Over Me Quality: CDDA 100%=========================================== Track: 13. Empty Cartridge Quality: CDDA 99%=========================================== Track: 14. Release Quality: CDDA 100%=========================================== Track: 15. Understand Quality: CDDA 100%=========================================== Track: 16. Ruin - Swim Quality: CDDA 100%=========================================== Track: 17. Burn [Unlisted] Quality: CDDA 100%===========================================


[torrentc.info]_t_5539683.torrent
Торрент: Зарегистрирован ·  [ 2018-03-26 14:07 ] ·  aa6eb9a97b228e33ea95134155f6bf1835385a9e

19 KB

Статус: проверено
Скачан: 0 раз
Размер: 833 MB
Оценка: 
(Голосов: 0)
Сказали спасибо: 0  Спасибо
Похожие темы
[Профиль]    [ЛС]
Показать сообщения:    
Ответить на тему

Текущее время: Сегодня 09:13

Часовой пояс: GMT + 7



Вы не можете начинать темы
Вы не можете отвечать на сообщения
Вы не можете редактировать свои сообщения
Вы не можете удалять свои сообщения
Вы не можете голосовать в опросах
Вы не можете прикреплять файлы к сообщениям
Вы можете скачивать файлы