(Smooth Jazz, Crossover Jazz) [CD] Nathan East - Nathan East - 2014, FLAC (tracks+.cue), lossless

Ответить на тему
Статистика раздачи [Обновить пиров]
Размер:  379 MB   |    Зарегистрирован:  3 месяца 29 дней   |    Скачан:  0 раз

Полного источника не было: Никогда

 
   
 
 
 
Автор Сообщение

torrentc.info

Создавать темы 19-Мар-2018 16:39

[Цитировать]

Nathan East - Nathan East Жанр: Smooth Jazz, Crossover Jazz
Носитель: CD
Год издания: 2014
Издатель (лейбл): Yamaha Entertainment Group Of America
Номер по каталогу: 7938
Аудиокодек: FLAC (*.flac)
Тип рипа: tracks+.cue
Битрейт аудио: lossless
Продолжительность: 60:27
Источник (релизер): Apollo
Наличие сканов в содержимом раздачи: нет
Треклист:
01. 101 Eastbound (5:25)
02. Sir Duke (4:06)
03. Letter from Home (4:03)
04. Moondance (4:21)
05. I Can Let Go Now (2:48)
06. Daft Funk (4:47)
07. Sevenate (3:39)
08. Can't Find My Way Home (5:33)
09. Moodswing (5:08)
10. Overjoyed (4:26)
11. Yesterday (3:14)
12. Madiba (8:23)
13. America the Beautiful (4:34)
 

... немного подробнее

1 101 Eastbound
Bass, Vocals – Nathan East
Drums – Ricky Lawson
Guitar – Michael Thompson, Ray Parker Jr.
Percussion – Rafael Padilla
Piano, Keyboards – Jeff Babko
Saxophone – Tom Scott
Tenor Saxophone, Baritone Saxophone – Joel Peskin
Trombone – Andy Martin
Trumpet – Chuck Findley
Written-By – M. East*, N. East*
2 Sir Duke
Bass, Vocals – Nathan East
Drums – Ricky Lawson
Guitar – Michael Thompson, Ray Parker Jr.
Keyboards, Organ [Hammond B3] – Jeff Babko
Percussion – Rafael Padilla
Saxophone – Tom Scott
Tenor Saxophone, Baritone Saxophone – Joel Peskin
Trombone – Andy Martin
Trumpet – Chuck Findley
Written-By – S. Wonder*
3 Letter From Home
Bass, Vocals – Nathan East
Conductor – Lendell Black
Drums – Ricky Lawson
Guitar – Michael Thompson
Orchestra – The Nashville Recording Orchestra
Piano – Jeff Babko
Written-By – P. Metheny*
4 Moondance
Bass – Nathan East
Drums – Vinnie Colaiuta
Guitar – Andrew Synowiec
Keyboards – Greg Phillinganes
Saxophone – Tom Scott
Tenor Saxophone, Baritone Saxophone – Joel Peskin
Trombone – Andy Martin
Trumpet – Chuck Findley
Vocals – Michael McDonald
Written-By – V. Morrison*
5 I Can Let Go
Bass – Nathan East
Orchestra – The Nashville Recording Orchestra
Piano – Jeff Babko
Vocals – Sara Bareilles
Written-By – M. McDonald*
6 Daft Funk
Bass – Nathan East
Drums – Ricky Lawson
Guitar – Michael Thompson, Ray Parker Jr.
Organ [Hammond B3] – Tim Carmon
Percussion – Rafael Padilla
Piano, Keyboards – Jeff Babko
Saxophone – Tom Scott
Vocals [Talkbox] – Byron Chambers
Written-By – M. Thompson*, N. East*
7 Sevenate
Acoustic Guitar, Electric Guitar – Chuck Loeb
Drums – Ricky Lawson
Electric Guitar – Michael Thompson
Percussion – Rafael Padilla
Piano – Jeff Babko
Vocals – Carmen Cuesta
Vocals, Bass – Nathan East
Written-By – C. Loeb*
8 Can't Find My Way Home
Backing Vocals – Debi Selby, Gale Mayes, Janice Gaines
Drums – Ricky Lawson
Guitar – Eric Clapton, Michael Thompson
Keyboards, Electric Piano [Wurlitzer] – David Paich
Organ [Hammond B3] – Tim Carmon
Percussion – Rafael Padilla
Piano – Jeff Babko
Vocals, Bass – Nathan East
Written-By – S. Winwood*
9 Moodswing
Bass [Upright] – Nathan East
Cello – Sara Sant'Ambrogio
Piano – Bob James
Viola – Kristin Wilkinson
Violin – David Angell, David Davidson
Written-By – B. James*
10 Overjoyed
Bass – Nathan East
Drums – Ricky Lawson
Guitar – Michael Thompson
Harmonica – Stevie Wonder
Keyboards – Greg Phillinganes, Jeff Babko
Organ [Hammond B3] – Tim Carmon
Percussion – Paulinho Da Costa, Rafael Padilla
Written-By – S. Wonder*
11 Yesterday
Piano – Noah East
Vocals, Bass [Upright] – Nathan East
Written-By – J. Lennon & P. McCartney*
12 Madiba
Backing Vocals – Andrew Thompson (2), Ashley Guilbert, Cersle Keenan, Debi Selby, Jacob Hubbard, Jenn Helvering, Maureen Murphy (3), Melodie Kirkpatrick, Ricky Braddy, Shelly Justice
Drums – Ricky Lawson
Electric Piano [Fender Rhodes], Organ [Hammond B3] – Tim Carmon
Electric Piano [Wurlitzer], Organ [Hammond B3] – David Paich
Guitar – Chris Gero, Michael Thompson
Percussion – Rafael Padilla
Piano, Synthesizer [Moog] – Jeff Babko
Vocals, Bass – Nathan East
Written-By – C. Gero*, N. East*
13 America The Beautiful
Bass – Nathan East
Orchestra – The Nashville Recording Orchestra
Written-By – K. L. Bates*, S. A. Ward

AllMusic Review by Andy Kellman

When Daft Punk went to make Random Access Memories, the seeking of Nathan East was one of the smartest moves they made. East provided basslines on nine of the album's songs, including "Get Lucky," a number two Hot 100 hit. The album won the Grammy for Album of the Year and shined a little mainstream light on him as well as several other unsung session musicians who have been active for decades with little recognition. There's a nod here to the French duo on the smooth disco-funk tune "Daft Funk," but otherwise, East's first solo album plays it straight to those who have avidly followed the musician's career, from his earliest session work in the late '70s through his albums with modern jazz group Fourplay. East calls upon a large cast of fellow session veterans, as well as several stars who have benefited from his recorded and live work. Unsurprisingly, this is a loose, superbly played set with the feel of a celebration. It kicks into full gear with a rollicking instrumental version of Stevie Wonder's "Sir Duke," on which East's bass serves as lead. Later on, Stevie himself provides a lead -- on harmonica -- throughout a relaxed version of his "Overjoyed." Van Morrison's "Moondance," featuring Michael McDonald, begins subtly but quickly switches into a romp that involves saxophonist Tom Scott and trumpeter Chuck Findley; McDonald is so energized at one point that his wailing sounds more like that of Arthur Brown than that of Morrison. Cleverly, that song is trailed by a Sara Bareilles-fronted "I Can Let Go Now," a song written by McDonald that originally appeared on his own solo debut. Eric Clapton, who has utilized East on the road and in hits such as "Tears in Heaven" and "Change the World," helps revisit Blind Faith's "Can't Find My Way Home" with subtle electric lines, while East doubles -- rather impressively! -- on lead vocal. A lot of other notable musicians are involved here, including Bob James and Chuck Loeb (two of East's Fourplay partners), Ray Parker, Jr., Vinnie Colauita, David Paich, Paulinho Da Costa, and drummer Ricky Lawson, who plays on most of the cuts and passed away in December 2013.
-

Лог создания рипа

X Lossless Decoder version 20140504 (147.0)
XLD extraction logfile from 2014-05-28 17:07:12 -0500
Nathan East / Nathan East
Used drive : HL-DT-ST DVDRAM AP70NS50 (revision 1.00)Media type : Pressed CD
Ripper mode : XLD Secure RipperDisable audio cache : OK for the drive with a cache less than 1375KiBMake use of C2 pointers : NORead offset correction : 667Max retry count : 20Gap status : Analyzed, Appended
TOC of the extracted CD Track | Start | Length | Start sector | End sector --------------------------------------------------------- 1 | 00:00:00 | 05:24:74 | 0 | 24373 2 | 05:24:74 | 04:05:69 | 24374 | 42817 3 | 09:30:68 | 04:02:40 | 42818 | 61007 4 | 13:33:33 | 04:20:55 | 61008 | 80562 5 | 17:54:13 | 02:47:49 | 80563 | 93136 6 | 20:41:62 | 04:47:13 | 93137 | 114674 7 | 25:29:00 | 03:39:34 | 114675 | 131133 8 | 29:08:34 | 05:32:51 | 131134 | 156084 9 | 34:41:10 | 05:08:24 | 156085 | 179208 10 | 39:49:34 | 04:26:26 | 179209 | 199184 11 | 44:15:60 | 03:14:09 | 199185 | 213743 12 | 47:29:69 | 08:22:58 | 213744 | 251451 13 | 55:52:52 | 04:34:00 | 251452 | 272001
List of alternate offset correction values # | Absolute | Relative | Confidence ------------------------------------------ 1 | 6 | -661 | 4
AccurateRip Summary (DiscID: 001bc2fa-0116b147-a70e2a0d) Track 01 : OK (v2, confidence 4/4, with different offset) Track 02 : OK (v2, confidence 4/4, with different offset) Track 03 : OK (v2, confidence 4/4, with different offset) Track 04 : OK (v2, confidence 4/4, with different offset) Track 05 : OK (v2, confidence 4/4, with different offset) Track 06 : OK (v2, confidence 4/4, with different offset) Track 07 : OK (v2, confidence 4/4, with different offset) Track 08 : OK (v2, confidence 4/4, with different offset) Track 09 : OK (v2, confidence 4/4, with different offset) Track 10 : OK (v2, confidence 4/4, with different offset) Track 11 : OK (v2, confidence 4/4, with different offset) Track 12 : OK (v2, confidence 4/4, with different offset) Track 13 : OK (v2, confidence 4/4, with different offset) ->All tracks accurately ripped.
All Tracks Album gain : -7.75 dB Peak : 1.000000 Statistics Read error : 0 Jitter error (maybe fixed) : 0 Retry sector count : 0 Damaged sector count : 0
Track 01 Filename : /Volumes/My Book/Uploads/Nathan East - Nathan East (2014) FLAC/01 - 101 Eastbound.flac Pre-gap length : 00:02:00
Track gain : -6.95 dB Peak : 1.000000 CRC32 hash (test run) : F17878E7 CRC32 hash : F17878E7 CRC32 hash (skip zero) : 6F413623 AccurateRip v1 signature : CFF23D7F AccurateRip v2 signature : 2DCC8AE9 (4A592942 w/correction) ->Accurately ripped with different offset (v2, confidence 4/4, offset -661) Statistics Read error : 0 Jitter error (maybe fixed) : 0 Retry sector count : 0 Damaged sector count : 0
Track 02 Filename : /Volumes/My Book/Uploads/Nathan East - Nathan East (2014) FLAC/02 - Sir Duke.flac
Track gain : -8.58 dB Peak : 1.000000 CRC32 hash (test run) : 3E7B19ED CRC32 hash : 3E7B19ED CRC32 hash (skip zero) : 1B6888AA AccurateRip v1 signature : E79A4124 AccurateRip v2 signature : 95DAA0BD (260D6F03 w/correction) ->Accurately ripped with different offset (v2, confidence 4/4, offset -661) Statistics Read error : 0 Jitter error (maybe fixed) : 0 Retry sector count : 0 Damaged sector count : 0
Track 03 Filename : /Volumes/My Book/Uploads/Nathan East - Nathan East (2014) FLAC/03 - Letter from Home.flac
Track gain : -5.95 dB Peak : 1.000000 CRC32 hash (test run) : 333C1F63 CRC32 hash : 333C1F63 CRC32 hash (skip zero) : 0C379BD8 AccurateRip v1 signature : 243F81A3 AccurateRip v2 signature : D3D7DED3 (DB013077 w/correction) ->Accurately ripped with different offset (v2, confidence 4/4, offset -661) Statistics Read error : 0 Jitter error (maybe fixed) : 0 Retry sector count : 0 Damaged sector count : 0
Track 04 Filename : /Volumes/My Book/Uploads/Nathan East - Nathan East (2014) FLAC/04 - Moondance.flac
Track gain : -8.93 dB Peak : 1.000000 CRC32 hash (test run) : 0B5920F3 CRC32 hash : 0B5920F3 CRC32 hash (skip zero) : 6A0384DE AccurateRip v1 signature : 54117C15 AccurateRip v2 signature : EC279DAB (9B4289E7 w/correction) ->Accurately ripped with different offset (v2, confidence 4/4, offset -661) Statistics Read error : 0 Jitter error (maybe fixed) : 0 Retry sector count : 0 Damaged sector count : 0
Track 05 Filename : /Volumes/My Book/Uploads/Nathan East - Nathan East (2014) FLAC/05 - I Can Let Go Now.flac
Track gain : -5.54 dB Peak : 0.993561 CRC32 hash (test run) : 0C01F53E CRC32 hash : 0C01F53E CRC32 hash (skip zero) : A2210498 AccurateRip v1 signature : 725923D8 AccurateRip v2 signature : 818F78A8 (1F15985C w/correction) ->Accurately ripped with different offset (v2, confidence 4/4, offset -661) Statistics Read error : 0 Jitter error (maybe fixed) : 0 Retry sector count : 0 Damaged sector count : 0
Track 06 Filename : /Volumes/My Book/Uploads/Nathan East - Nathan East (2014) FLAC/06 - Daft Funk.flac
Track gain : -7.93 dB Peak : 1.000000 CRC32 hash (test run) : 31650699 CRC32 hash : 31650699 CRC32 hash (skip zero) : 83B6EA02 AccurateRip v1 signature : 573441AC AccurateRip v2 signature : 28BECF3F (AEF9FC12 w/correction) ->Accurately ripped with different offset (v2, confidence 4/4, offset -661) Statistics Read error : 0 Jitter error (maybe fixed) : 0 Retry sector count : 0 Damaged sector count : 0
Track 07 Filename : /Volumes/My Book/Uploads/Nathan East - Nathan East (2014) FLAC/07 - Sevenate.flac
Track gain : -7.62 dB Peak : 1.000000 CRC32 hash (test run) : 5E9AB1D1 CRC32 hash : 5E9AB1D1 CRC32 hash (skip zero) : C59888C0 AccurateRip v1 signature : 515F8F97 AccurateRip v2 signature : 8A09033B (2648509E w/correction) ->Accurately ripped with different offset (v2, confidence 4/4, offset -661) Statistics Read error : 0 Jitter error (maybe fixed) : 0 Retry sector count : 0 Damaged sector count : 0
Track 08 Filename : /Volumes/My Book/Uploads/Nathan East - Nathan East (2014) FLAC/08 - Can't Find My Way Home.flac
Track gain : -6.90 dB Peak : 1.000000 CRC32 hash (test run) : DF512F9D CRC32 hash : DF512F9D CRC32 hash (skip zero) : 2BDCF206 AccurateRip v1 signature : A510DBCB AccurateRip v2 signature : 04CEB26F (B165F631 w/correction) ->Accurately ripped with different offset (v2, confidence 4/4, offset -661) Statistics Read error : 0 Jitter error (maybe fixed) : 0 Retry sector count : 0 Damaged sector count : 0
Track 09 Filename : /Volumes/My Book/Uploads/Nathan East - Nathan East (2014) FLAC/09 - Moodswing.flac
Track gain : -6.77 dB Peak : 0.988586 CRC32 hash (test run) : 08D5205E CRC32 hash : 08D5205E CRC32 hash (skip zero) : BFCB4319 AccurateRip v1 signature : F2C161BE AccurateRip v2 signature : E245102D (177EE310 w/correction) ->Accurately ripped with different offset (v2, confidence 4/4, offset -661) Statistics Read error : 0 Jitter error (maybe fixed) : 0 Retry sector count : 0 Damaged sector count : 0
Track 10 Filename : /Volumes/My Book/Uploads/Nathan East - Nathan East (2014) FLAC/10 - Overjoyed.flac
Track gain : -6.22 dB Peak : 1.000000 CRC32 hash (test run) : 753DBD40 CRC32 hash : 753DBD40 CRC32 hash (skip zero) : 48319C1A AccurateRip v1 signature : F34F32AD AccurateRip v2 signature : FD9BDAB9 (3669D3BA w/correction) ->Accurately ripped with different offset (v2, confidence 4/4, offset -661) Statistics Read error : 0 Jitter error (maybe fixed) : 0 Retry sector count : 0 Damaged sector count : 0
Track 11 Filename : /Volumes/My Book/Uploads/Nathan East - Nathan East (2014) FLAC/11 - Yesterday.flac
Track gain : -3.72 dB Peak : 0.986603 CRC32 hash (test run) : 6CB4D8F6 CRC32 hash : 6CB4D8F6 CRC32 hash (skip zero) : 1495D293 AccurateRip v1 signature : FB4CFDBE AccurateRip v2 signature : DB224706 (87D504EA w/correction) ->Accurately ripped with different offset (v2, confidence 4/4, offset -661) Statistics Read error : 0 Jitter error (maybe fixed) : 0 Retry sector count : 0 Damaged sector count : 0
Track 12 Filename : /Volumes/My Book/Uploads/Nathan East - Nathan East (2014) FLAC/12 - Madiba.flac
Track gain : -8.27 dB Peak : 1.000000 CRC32 hash (test run) : 1BCD673C CRC32 hash : 1BCD673C CRC32 hash (skip zero) : 24577AFD AccurateRip v1 signature : 0340A027 AccurateRip v2 signature : F0D0020D (52403893 w/correction) ->Accurately ripped with different offset (v2, confidence 4/4, offset -661) Statistics Read error : 0 Jitter error (maybe fixed) : 0 Retry sector count : 0 Damaged sector count : 0
Track 13 Filename : /Volumes/My Book/Uploads/Nathan East - Nathan East (2014) FLAC/13 - America the Beautiful.flac
Track gain : -7.83 dB Peak : 0.988586 CRC32 hash (test run) : 493AE32A CRC32 hash : 493AE32A CRC32 hash (skip zero) : BC6D5C25 AccurateRip v1 signature : D71BF771 AccurateRip v2 signature : F8478D84 (7F682132 w/correction) ->Accurately ripped with different offset (v2, confidence 4/4, offset -661) Statistics Read error : 0 Jitter error (maybe fixed) : 0 Retry sector count : 0 Damaged sector count : 0
No errors occurred
End of status report
-----BEGIN XLD SIGNATURE-----rv2EvKThYU34c5wWn6sq_PO31wKB6P9LQw0AR4VUAsUXLJSMG2NUR5XpZ_XW1O3M1zcj2.tzU4txBfbDg58Tj6jTakRnQKc67hk0N9q-----END XLD SIGNATURE-----

Содержание индексной карты (.CUE)

TITLE "Nathan East"PERFORMER "Nathan East"REM GENRE "Jazz"REM DATE "2014"REM DISCID A70E2A0DREM COMPILATION TRUEFILE "01 - 101 Eastbound.wav" WAVE TRACK 01 AUDIO TITLE "101 Eastbound" ISRC QMWRT1300031 FLAGS DCP INDEX 01 00:00:00FILE "02 - Sir Duke.wav" WAVE TRACK 02 AUDIO TITLE "Sir Duke" ISRC QMWRT1300032 FLAGS DCP INDEX 01 00:00:00FILE "03 - Letter from Home.wav" WAVE TRACK 03 AUDIO TITLE "Letter from Home" ISRC QMWRT1300033 FLAGS DCP INDEX 01 00:00:00FILE "04 - Moondance.wav" WAVE TRACK 04 AUDIO TITLE "Moondance" ISRC QMWRT1300034 FLAGS DCP INDEX 01 00:00:00FILE "05 - I Can Let Go Now.wav" WAVE TRACK 05 AUDIO TITLE "I Can Let Go Now" ISRC QMWRT1300038 FLAGS DCP INDEX 01 00:00:00FILE "06 - Daft Funk.wav" WAVE TRACK 06 AUDIO TITLE "Daft Funk" ISRC QMWRT1300036 FLAGS DCP INDEX 01 00:00:00FILE "07 - Sevenate.wav" WAVE TRACK 07 AUDIO TITLE "Sevenate" ISRC QMWRT1300037 FLAGS DCP INDEX 01 00:00:00FILE "08 - Can't Find My Way Home.wav" WAVE TRACK 08 AUDIO TITLE "Can't Find My Way Home" ISRC QMWRT1300035 FLAGS DCP INDEX 01 00:00:00FILE "09 - Moodswing.wav" WAVE TRACK 09 AUDIO TITLE "Moodswing" ISRC QMWRT1300041 FLAGS DCP INDEX 01 00:00:00FILE "10 - Overjoyed.wav" WAVE TRACK 10 AUDIO TITLE "Overjoyed" ISRC QMWRT1300044 FLAGS DCP INDEX 01 00:00:00FILE "11 - Yesterday.wav" WAVE TRACK 11 AUDIO TITLE "Yesterday" ISRC QMWRT1300039 FLAGS DCP INDEX 01 00:00:00FILE "12 - Madiba.wav" WAVE TRACK 12 AUDIO TITLE "Madiba" ISRC QMWRT1300040 FLAGS DCP INDEX 01 00:00:00FILE "13 - America the Beautiful.wav" WAVE TRACK 13 AUDIO TITLE "America the Beautiful" ISRC QMWRT1300043 FLAGS DCP INDEX 01 00:00:00
WEB-релиз с бонусным треком


[torrentc.info]_t_5536422.torrent
Торрент: Зарегистрирован ·  [ 2018-03-19 16:39 ] ·  83de0b981f9908793e09adc2363be9a312942a62

16 KB

Статус: проверено
Скачан: 0 раз
Размер: 379 MB
Оценка: 
(Голосов: 0)
Сказали спасибо: 0  Спасибо
Похожие темы
[Профиль]    [ЛС]
Показать сообщения:    
Ответить на тему

Текущее время: Сегодня 22:45

Часовой пояс: GMT + 7



Вы не можете начинать темы
Вы не можете отвечать на сообщения
Вы не можете редактировать свои сообщения
Вы не можете удалять свои сообщения
Вы не можете голосовать в опросах
Вы не можете прикреплять файлы к сообщениям
Вы можете скачивать файлы