Яма / The Hole (Ник Хэмм / Nick Hamm) [2001, Великобритания, ужасы, триллер, драма, детектив, DVDRip] MVO + Sub Rus, Eng + Original Eng

Ответить на тему
Статистика раздачи [Обновить пиров]
Размер:  1.61 GB   |    Зарегистрирован:  6 месяцев 5 дней   |    Скачан:  0 раз

Полного источника не было: Никогда

 
   
 
 
 
Автор Сообщение

torrentc.info

Создавать темы 14-Мар-2018 00:12

[Цитировать]

Яма / The Hole
Страна: Великобритания
Жанр: ужасы, триллер, драма, детектив
Год выхода: 2001
Продолжительность: 01:38:06
Перевод: Профессиональный (многоголосый закадровый)
Субтитры: русские, английские
Оригинальная аудиодорожка: английский

Режиссер: Ник Хэмм / Nick Hamm
В ролях: Тора Бёрч, Десмонд Харрингтон, Дэниэл Броклбэнк, Лоуренс Фокс, Кира Найтли, Стивен Вэддингтон, Эмбет Дэвидц
Описание: Четверо студентов престижной английской школы решили устроить особенную вечеринку и выбрали для этого бункер времен войны. Бросив вызов родителям, школе, обыденной жизни и самим себе, они спускаются в зловещие катакомбы, чтобы подвергнуть свой разум, свои чувства шокирующим приключениям. Но через 18 дней лишь одному участнику этой безумной затеи удается вырваться из этого ада — жуткого подземелья.
Качество видео: DVDRip
Формат файла: AVI
Видео: 624x480 (1.30:1), 23.976 fps, XviD build 73 ~1731 kbps avg, 0.24 bit/pixel
Аудио: 48 kHz, AC3 Dolby Digital, 3/2 (L,C,R,l,r) + LFE ch, ~384 kbps - многоголосый
Аудио: 48 kHz, AC3 Dolby Digital, 2/0 (L,R) ch, ~224 kbps - оригинал (отдельным файлом)
Формат файла субтитров: softsub (SRT)

Отличие

http://Torrentc/forum/viewtopic.php?t=1792585 - другое наполнение

MediaInfo

GeneralComplete name : H:\The.Hole.2001.DVDRip_[1.46]_[teko]\The.Hole.2001.DVDRip_[1.46].aviFormat : AVIFormat/Info : Audio Video InterleaveFile size : 1.46 GiBDuration : 1h 38mnOverall bit rate : 2 125 KbpsWriting application : VirtualDubMod 1.5.10.3 | www.virtualdub-fr.org || (build 2550/release)Writing library : VirtualDubMod build 2550/release
VideoID : 0Format : MPEG-4 VisualFormat profile : Advanced Simple@L5Format settings, BVOP : 2Format settings, QPel : NoFormat settings, GMC : No warppointsFormat settings, Matrix : CustomCodec ID : XVIDCodec ID/Hint : XviDDuration : 1h 38mnBit rate : 1 732 KbpsWidth : 624 pixelsHeight : 480 pixelsDisplay aspect ratio : 4:3Frame rate : 23.976 (24000/1001) fpsColor space : YUVChroma subsampling : 4:2:0Bit depth : 8 bitsScan type : ProgressiveCompression mode : LossyBits/(Pixel*Frame) : 0.241Stream size : 1.19 GiB (81%)Writing library : XviD 73
AudioID : 1Format : AC-3Format/Info : Audio Coding 3Mode extension : CM (complete main)Format settings, Endianness : BigCodec ID : 2000Duration : 1h 38mnBit rate mode : ConstantBit rate : 384 KbpsChannel(s) : 6 channelsChannel positions : Front: L C R, Side: L R, LFESampling rate : 48.0 KHzFrame rate : 31.250 fps (1536 spf)Compression mode : LossyStream size : 269 MiB (18%)Alignment : Split accross interleavesInterleave, duration : 42 ms (1.00 video frame)Interleave, preload duratio : 500 ms
:--


[torrentc.info]_t_5533713.torrent
Торрент: Зарегистрирован ·  [ 2018-03-14 00:12 ] ·  f7c49eade76821bd62ef2beb289abe6d21206d44

17 KB

Статус: проверено
Скачан: 0 раз
Размер: 1.61 GB
Оценка: 
(Голосов: 0)
Сказали спасибо: 0  Спасибо
Похожие темы
[Профиль]    [ЛС]
Показать сообщения:    
Ответить на тему

Текущее время: Сегодня 08:21

Часовой пояс: GMT + 7



Вы не можете начинать темы
Вы не можете отвечать на сообщения
Вы не можете редактировать свои сообщения
Вы не можете удалять свои сообщения
Вы не можете голосовать в опросах
Вы не можете прикреплять файлы к сообщениям
Вы можете скачивать файлы