Брюс и бронзовые бойцы Шаолиня / Брюс против бронзовых бойцов Шаолиня / Король Боксер 2 / Bruce and the Shaolin Bronzemen / King Boxer 2 (Джозеф Конг / Joseph Kong Hung) [1977, Гонконг, боевые искусства, VHSRip] VO (Ghostface)

Ответить на тему
Статистика раздачи [Обновить пиров]
Размер:  1.37 GB   |    Зарегистрирован:  6 месяцев 9 дней   |    Скачан:  2 раза

Полного источника не было: 5 месяцев 5 дней

 
   
 
 
 
Автор Сообщение

torrentc.info

Создавать темы 13-Мар-2018 23:10

[Цитировать]

Брюс и бронзовые бойцы Шаолиня / Брюс против бронзовых бойцов Шаолиня / Король Боксер 2 / Bruce and the Shaolin Bronzemen / King Boxer 2 / Shen long meng hu
Страна: Гонконг
Жанр: боевые искусства
Год выхода: 1977
Продолжительность: 01:18:10
Перевод: Одноголосый закадровый Ghostface
Субтитры: нет
Режиссер: Джозеф Конг / Joseph Kong Hung
В ролях: Брюс Ле, Лита Васкез, Ник Чун, Руби Анна, Нона Хорера, Вивиан Веласко, Эрни Ортега, Чинг Шу Анг, Лунг И
Описание: Ван Лун, отправляется на поиски мистера Сантоса - старого знакомого его учителя. Перед тем, как он отправится в путь, учитель даёт ему половину серебряной монеты. Вторая же половина, находится у мистера Сантоса. Эта монета приведёт к затерянным сокровищам, которые были спрятаны на Филиппинах во время Второй Мировой войны. Однако не всё так просто. Злоумышленники тоже ищут эти сокровища, и, первым делом, им необходимо добраться до монеты....
Сэмпл: http://multi-up.com/1190646
Качество видео: VHSRip (Источник: Torrentc DVD-Video)
Формат файла: AVI
Видео: XviD, 640x496, (1,29:1), 25.000 fps, 2378 Кбит/с, 8 бит, 0.30 bit/pixel
Аудио: Русский (MP3, 2 ch, 48,0 KHz, 128 Kbps)

MediaInfo

ОбщееПолное имя : H:\Фильмы на трекер\Брюс и бронзовые бойцы Шаолиня (боевые искусства 1982 год).aviФормат файла : AVIФормат файла/Информация : Audio Video InterleaveРазмер файла : 1,37 ГбайтПродолжительность : 1 ч. 18 м.Общий поток : 2515 Кбит/секПрограмма кодирования : VirtualDubMod 1.5.10.3 | www.virtualdub-fr.org || (build 2550/release)Библиотека кодирования : VirtualDubMod build 2550/release
ВидеоИдентификатор : 0Формат файла : MPEG-4 VisualПрофиль формата : Advanced Simple@L5Параметр BVOP формата : 2Параметр QPel формата : НетПараметр GMC формата : Без точки переходаПараметр матрицы формата : ВыборочнаяИдентификатор кодека : XVIDИдентификатор кодека/Подсказка : XviDПродолжительность : 1 ч. 18 м.Битрейт : 2378 Кбит/секШирина : 640 пикселейВысота : 496 пикселейСоотношение сторон : 1,290Частота кадров : 25,000 кадров/секЦветовое пространство : YUVСубдискретизация насыщенности : 4:2:0Битовая глубина : 8 битТип развёртки : ПрогрессивнаяМетод сжатия : С потерямиБит/(Пиксели*Кадры) : 0.300Размер потока : 1,30 Гбайт (95%)Библиотека кодирования : XviD 73
АудиоИдентификатор : 1Формат файла : MPEG AudioВерсия формата : Version 1Профиль формата : Layer 3Идентификатор кодека : 55Идентификатор кодека/Подсказка : MP3Продолжительность : 1 ч. 18 м.Вид битрейта : ПостоянныйБитрейт : 128 Кбит/секКаналы : 2 каналаЧастота : 48,0 КГцМетод сжатия : С потерямиРазмер потока : 71,6 Мбайт (5%)Выравнивание : Соединение по промежуткамПродолжительность промежутка : 40 мс. (1,00 видеокадр)Время предзагрузки промежутка : 504 мс.Библиотека кодирования : LAME3.99rНастройки программы : -m s -V 4 -q 2 -lowpass 17 -b 128

Скриншот c названием фильма

Скриншоты



[torrentc.info]_t_5533606.torrent
Торрент: Зарегистрирован ·  [ 2018-03-13 23:10 ] ·  8062176ccd2a3e947ebe19882617e0f1387037ba

14 KB

Статус: проверено
Скачан: 2 раз
Размер: 1.37 GB
Оценка: 
(Голосов: 0)
Сказали спасибо: 0  Спасибо
Похожие темы
[Профиль]    [ЛС]
Показать сообщения:    
Ответить на тему

Текущее время: Сегодня 14:16

Часовой пояс: GMT + 7



Вы не можете начинать темы
Вы не можете отвечать на сообщения
Вы не можете редактировать свои сообщения
Вы не можете удалять свои сообщения
Вы не можете голосовать в опросах
Вы не можете прикреплять файлы к сообщениям
Вы можете скачивать файлы