Улица пожарных, 25 / Tüzoltó utca 25 / 25 Fireman\'s Street (Иштван Сабо / Istvan Szabo) [1973, Венгрия, драма, сюр, DVDRip] AVO (Алексеев) + Sub Eng + original

Ответить на тему
Статистика раздачи [Обновить пиров]
Размер:  1.46 GB   |    Зарегистрирован:  6 месяцев 8 дней   |    Скачан:  0 раз

Полного источника не было: Никогда

 
   
 
 
 
Автор Сообщение

torrentc.info

Создавать темы 12-Мар-2018 04:57

[Цитировать]

Улица пожарных, 25 / Tüzoltó utca 25 / 25 Fireman's Street
Страна: Венгрия
Жанр: драма, сюр
Год выхода: 1973
Продолжительность: 01:29:38
Перевод: Авторский (одноголосый закадровый) - Антон Алексеев
Субтитры: английские
Оригинальная аудиодорожка: венгерский

Режиссер: Иштван Сабо / Istvan Szabo
В ролях: Люцина Винницка, Маргит Макаи, Карой Ковач, Андраш Балинт, Эржи Пастор, Эдит Ленкеи, Янош Яни, Золтан Зелк
Описание: Сюрреалистическая драма, ведущими мотивами которой являются недавнее прошлое страны и переплетающиеся с ним судьбы отцов, выпавшие на их долю исторические испытания. Как в калейдоскопе, перемешаны образы снов и обрывки памяти…
Один из самых амбициозных проектов венгерского классика «новой волны» 60-х годов, который сумел соединить в фильме кухонную реальность и сюрреализм.

Качество видео: DVDRip
Формат файла: AVI
Видео: 688x432 (1.59:1), 23.976 fps, XviD build 73 ~1995 kbps avg, 0.28 bit/pixel
Аудио: 48 kHz, AC3 Dolby Digital, 1/0 (C) ch, ~128 kbps - авторский
Аудио: 48 kHz, AC3 Dolby Digital, 2/0 (L,R) ch, ~192 kbps - оригинал
Формат файла субтитров: softsub (SRT)

Источник: Torrentc

http://Torrentc/forum/viewtopic.php?t=1486578

MediaInfo

GeneralComplete name : H:\Firemans.Street.25.1973.DVDRip_[1.46]_[teko]\Firemans.Street.25.1973.DVDRip_[1.46].aviFormat : AVIFormat/Info : Audio Video InterleaveFile size : 1.46 GiBDuration : 1h 29mnOverall bit rate : 2 330 KbpsWriting application : VirtualDubMod 1.5.10.3 | www.virtualdub-fr.org || (build 2550/release)Writing library : VirtualDubMod build 2550/release
VideoID : 0Format : MPEG-4 VisualFormat profile : Advanced Simple@L5Format settings, BVOP : 2Format settings, QPel : NoFormat settings, GMC : No warppointsFormat settings, Matrix : CustomCodec ID : XVIDCodec ID/Hint : XviDDuration : 1h 29mnBit rate : 1 996 KbpsWidth : 688 pixelsHeight : 432 pixelsDisplay aspect ratio : 16:10Frame rate : 23.976 (24000/1001) fpsColor space : YUVChroma subsampling : 4:2:0Bit depth : 8 bitsScan type : ProgressiveCompression mode : LossyBits/(Pixel*Frame) : 0.280Stream size : 1.25 GiB (86%)Writing library : XviD 73
Audio #1ID : 1Format : AC-3Format/Info : Audio Coding 3Mode extension : CM (complete main)Format settings, Endianness : BigCodec ID : 2000Duration : 1h 29mnBit rate mode : ConstantBit rate : 128 KbpsChannel(s) : 1 channelChannel positions : Front: CSampling rate : 48.0 KHzFrame rate : 31.250 fps (1536 spf)Compression mode : LossyStream size : 82.0 MiB (5%)Alignment : Split accross interleavesInterleave, duration : 42 ms (1.00 video frame)Interleave, preload duratio : 500 ms
Audio #2ID : 2Format : AC-3Format/Info : Audio Coding 3Mode extension : CM (complete main)Format settings, Endianness : BigCodec ID : 2000Duration : 1h 29mnBit rate mode : ConstantBit rate : 192 KbpsChannel(s) : 2 channelsChannel positions : Front: L RSampling rate : 48.0 KHzFrame rate : 31.250 fps (1536 spf)Compression mode : LossyStream size : 123 MiB (8%)Alignment : Split accross interleavesInterleave, duration : 42 ms (1.00 video frame)Interleave, preload duratio : 500 ms
:--


[torrentc.info]_t_5529806.torrent
Торрент: Зарегистрирован ·  [ 2018-03-12 04:57 ] ·  31078a354dbe107013a2bbbb4791a1172942ac55

15 KB

Статус: проверено
Скачан: 0 раз
Размер: 1.46 GB
Оценка: 
(Голосов: 0)
Сказали спасибо: 0  Спасибо
Похожие темы
[Профиль]    [ЛС]
Показать сообщения:    
Ответить на тему

Текущее время: Сегодня 08:20

Часовой пояс: GMT + 7



Вы не можете начинать темы
Вы не можете отвечать на сообщения
Вы не можете редактировать свои сообщения
Вы не можете удалять свои сообщения
Вы не можете голосовать в опросах
Вы не можете прикреплять файлы к сообщениям
Вы можете скачивать файлы