(Contemporary Jazz) Roselli Quartet - Claude Bolling - Suites for Flute and Jazz Trio - 2003, FLAC (tracks+.cue), lossless

Ответить на тему
Статистика раздачи [Обновить пиров]
Размер:  327 MB   |    Зарегистрирован:  9 месяцев 1 день   |    Скачан:  0 раз

Полного источника не было: Никогда

 
   
 
 
 
Автор Сообщение

torrentc.info

Создавать темы 11-Мар-2018 19:11

[Цитировать]

Roselli Quartet - Claude Bolling - Suites for Flute and Jazz Piano Trio
Жанр: Contemporary Jazz
Год выхода диска: 2003
Производитель диска: China
Аудио кодек: FLAC
Тип рипа: tracks+.cue
Битрейт аудио: lossless
Продолжительность: 57:28
Трэклист:
01. Roselli Quartet - Suite No. 1 for Flute and Jazz Trio - I. Baroque and Blue (5:36)
02. Roselli Quartet - Suite No. 1 for Flute and Jazz Trio - II. Sentimentale (7:58)
03. Roselli Quartet - Suite No. 1 for Flute and Jazz Trio - III. Javanaise (5:05)
04. Roselli Quartet - Suite No. 1 for Flute and Jazz Trio - IV. Fugace (3:49)
05. Roselli Quartet - Suite No. 1 for Flute and Jazz Trio - V. Irlandaise (2:51)
06. Roselli Quartet - Suite No. 1 for Flute and Jazz Trio - VI. Versatile (5:26)
07. Roselli Quartet - Suite No. 1 for Flute and Jazz Trio - VII. Veloce (3:36)
08. Roselli Quartet - Suite No. 2 for Flute and Jazz Trio - I. Espiege (9:51)
09. Roselli Quartet - Suite No. 2 for Flute and Jazz Trio - II. Amoureuse (7:29)
10. Roselli Quartet - Suite No. 2 for Flute and Jazz Trio - III. Jazzy (5:46)

Отчёт EAC

Exact Audio Copy V0.99 prebeta 4 from 23. January 2008
EAC extraction logfile from 14. January 2009, 11:50
Roselli Quartet / Claude Bolling - Suites for Flute and Jazz Trio
Used drive : PIONEER DVD-RW DVR-112D Adapter: 0 ID: 0
Read mode : SecureUtilize accurate stream : YesDefeat audio cache : YesMake use of C2 pointers : No
Read offset correction : 48Overread into Lead-In and Lead-Out : NoFill up missing offset samples with silence : YesDelete leading and trailing silent blocks : NoNull samples used in CRC calculations : YesUsed interface : Native Win32 interface for Win NT & 2000Gap handling : Appended to previous track
Used output format : User Defined EncoderSelected bitrate : 768 kBit/sQuality : HighAdd ID3 tag : NoCommand line compressor : C:\Program Files\FLAC\flac.exeAdditional command line options : -6 -V -T "ARTIST=%a" -T "TITLE=%t" -T "ALBUM=%g" -T "DATE=%y" -T "TRACKNUMBER=%n" -T "GENRE=%m" -T "COMMENT=%e" %s -o %d
TOC of the extracted CD
Track | Start | Length | Start sector | End sector --------------------------------------------------------- 1 | 0:00.00 | 5:36.32 | 0 | 25231 2 | 5:36.32 | 7:57.63 | 25232 | 61069 3 | 13:34.20 | 5:05.30 | 61070 | 83974 4 | 18:39.50 | 3:48.62 | 83975 | 101136 5 | 22:28.37 | 2:51.25 | 101137 | 113986 6 | 25:19.62 | 5:25.65 | 113987 | 138426 7 | 30:45.52 | 3:35.65 | 138427 | 154616 8 | 34:21.42 | 9:51.08 | 154617 | 198949 9 | 44:12.50 | 7:29.00 | 198950 | 232624 10 | 51:41.50 | 5:46.25 | 232625 | 258599
Track 1
Filename E:\upload\01 - Suite No. 1 for Flute and Jazz Trio - I. Baroque and Blue.wav
Pre-gap length 0:00:02.00
Peak level 100.0 % Track quality 100.0 % Test CRC D49E6C52 Copy CRC D49E6C52 Copy OK
Track 2
Filename E:\upload\02 - Suite No. 1 for Flute and Jazz Trio - II. Sentimentale.wav
Peak level 100.0 % Track quality 99.9 % Test CRC 0908D8A5 Copy CRC 0908D8A5 Copy OK
Track 3
Filename E:\upload\03 - Suite No. 1 for Flute and Jazz Trio - III. Javanaise.wav
Peak level 100.0 % Track quality 100.0 % Test CRC A1382DF9 Copy CRC A1382DF9 Copy OK
Track 4
Filename E:\upload\04 - Suite No. 1 for Flute and Jazz Trio - IV. Fugace.wav
Peak level 100.0 % Track quality 100.0 % Test CRC 1E4634E0 Copy CRC 1E4634E0 Copy OK
Track 5
Filename E:\upload\05 - Suite No. 1 for Flute and Jazz Trio - V. Irlandaise.wav
Peak level 99.9 % Track quality 99.9 % Test CRC 94F406C9 Copy CRC 94F406C9 Copy OK
Track 6
Filename E:\upload\06 - Suite No. 1 for Flute and Jazz Trio - Vi. Versatile.wav
Peak level 99.9 % Track quality 100.0 % Test CRC 063E6387 Copy CRC 063E6387 Copy OK
Track 7
Filename E:\upload\07 - Suite No. 1 for Flute and Jazz Trio - VII. Veloce.wav
Peak level 100.0 % Track quality 99.9 % Test CRC 234009C3 Copy CRC 234009C3 Copy OK
Track 8
Filename E:\upload\08 - Suite No. 2 for Flute and Jazz Trio - I. Espiege.wav
Peak level 93.6 % Track quality 100.0 % Test CRC FA19354E Copy CRC FA19354E Copy OK
Track 9
Filename E:\upload\09 - Suite No. 2 for Flute and Jazz Trio - II. Amoureuse.wav
Peak level 99.9 % Track quality 99.9 % Test CRC 853027BA Copy CRC 853027BA Copy OK
Track 10
Filename E:\upload\10 - Suite No. 2 for Flute and Jazz Trio - III. Jazzy.wav
Peak level 99.9 % Track quality 99.9 % Test CRC 5A82A5A1 Copy CRC 5A82A5A1 Copy OK
No errors occurred
End of status report

CUE

REM GENRE ClassicalREM DATE 2003REM DISCID 6D0D780AREM COMMENT "ExactAudioCopy v0.99pb4"PERFORMER "Roselli Quartet"TITLE "Claude Bolling - Suites for Flute and Jazz Trio"FILE "01 - Suite No. 1 for Flute and Jazz Trio - I. Baroque and Blue.wav" WAVE TRACK 01 AUDIO TITLE "Suite No. 1 for Flute and Jazz Trio - I. Baroque and Blue" PERFORMER "Roselli Quartet" INDEX 01 00:00:00FILE "02 - Suite No. 1 for Flute and Jazz Trio - II. Sentimentale.wav" WAVE TRACK 02 AUDIO TITLE "Suite No. 1 for Flute and Jazz Trio - II. Sentimentale" PERFORMER "Roselli Quartet" INDEX 01 00:00:00FILE "03 - Suite No. 1 for Flute and Jazz Trio - III. Javanaise.wav" WAVE TRACK 03 AUDIO TITLE "Suite No. 1 for Flute and Jazz Trio - III. Javanaise" PERFORMER "Roselli Quartet" INDEX 01 00:00:00FILE "04 - Suite No. 1 for Flute and Jazz Trio - IV. Fugace.wav" WAVE TRACK 04 AUDIO TITLE "Suite No. 1 for Flute and Jazz Trio - IV. Fugace" PERFORMER "Roselli Quartet" INDEX 01 00:00:00FILE "05 - Suite No. 1 for Flute and Jazz Trio - V. Irlandaise.wav" WAVE TRACK 05 AUDIO TITLE "Suite No. 1 for Flute and Jazz Trio - V. Irlandaise" PERFORMER "Roselli Quartet" INDEX 01 00:00:00FILE "06 - Suite No. 1 for Flute and Jazz Trio - Vi. Versatile.wav" WAVE TRACK 06 AUDIO TITLE "Suite No. 1 for Flute and Jazz Trio - Vi. Versatile" PERFORMER "Roselli Quartet" INDEX 01 00:00:00FILE "07 - Suite No. 1 for Flute and Jazz Trio - VII. Veloce.wav" WAVE TRACK 07 AUDIO TITLE "Suite No. 1 for Flute and Jazz Trio - VII. Veloce" PERFORMER "Roselli Quartet" INDEX 01 00:00:00FILE "08 - Suite No. 2 for Flute and Jazz Trio - I. Espiege.wav" WAVE TRACK 08 AUDIO TITLE "Suite No. 2 for Flute and Jazz Trio - I. Espiege" PERFORMER "Roselli Quartet" INDEX 01 00:00:00FILE "09 - Suite No. 2 for Flute and Jazz Trio - II. Amoureuse.wav" WAVE TRACK 09 AUDIO TITLE "Suite No. 2 for Flute and Jazz Trio - II. Amoureuse" PERFORMER "Roselli Quartet" INDEX 01 00:00:00FILE "10 - Suite No. 2 for Flute and Jazz Trio - III. Jazzy.wav" WAVE TRACK 10 AUDIO TITLE "Suite No. 2 for Flute and Jazz Trio - III. Jazzy" PERFORMER "Roselli Quartet" INDEX 01 00:00:00
Доп. информация: сканы обложки и буклета в комплекте (буклет частично на китайском, в конце на английском).


[torrentc.info]_t_1440856.torrent
Торрент: Зарегистрирован ·  [ 2018-03-11 19:10 ] ·  c9c750a8009594c41675345c2bd8e6a9289f6cfa

15 KB

Статус: проверено
Скачан: 0 раз
Размер: 327 MB
Оценка: 
(Голосов: 0)
Сказали спасибо: 0  Спасибо
Похожие темы
[Профиль]    [ЛС]
Показать сообщения:    
Ответить на тему

Текущее время: Сегодня 18:18

Часовой пояс: GMT + 7



Вы не можете начинать темы
Вы не можете отвечать на сообщения
Вы не можете редактировать свои сообщения
Вы не можете удалять свои сообщения
Вы не можете голосовать в опросах
Вы не можете прикреплять файлы к сообщениям
Вы можете скачивать файлы