Ура! У нас каникулы! (Владимир Беренштейн, Илья Гурин) [1972, приключения, DVDRip-AVC]

Ответить на тему
Статистика раздачи [Обновить пиров]
Размер:  1.4 GB   |    Зарегистрирован:  8 месяцев 30 дней   |    Скачан:  0 раз

Полного источника не было: Никогда

 
   
 
 
 
Автор Сообщение

torrentc.info

Создавать темы 11-Мар-2018 01:16

[Цитировать]

Ура! У нас каникулы!- Жанр: приключения
Год выхода: 1972
Продолжительность: 01:06:34-Режиссёры: Владимир Беренштейн, Илья Гурин-В ролях:
Владимир Кувшинов, Валерий Зубарев, Владимир Кузнецов, Владимир Рецептер, Ирина Бунина, Виктор Доценко, Петер Рольберг, Алена Сеплянская, Фриц Дитц
Описание:
Немецкие школьники подружились со сверстниками из СССР, приехавшими в город Котбус на слет пионеров стран Европы, Азии и Африки. А некоторое время спустя группа немецких школьников приезжает в Москву. Их сверстник Валера Степанов показывает им город.-Источник: Torrentc | Сэмпл | Кинопоиск-Качество видео: DVDRip-AVC, за Источник: Torrentc спасибо Slava47
Формат файла: MKV
Видео: x264 (High@L4.1); 692@738x288 25.000 fps; Display aspect ratio: 2.563:1; 2807 Kbps
Аудио: Оригинал: AC-3; 16 bits 48 Khz; 2.0ch 192 Kbps; CBR

MediaInfox264 log

avs [info]: 692x288p 16:15 @ 25/1 fps (cfr)
x264 [info]: using SAR=16/15
x264 [info]: using cpu capabilities: MMX2 SSE2Fast SSSE3 SSE4.2
x264 [info]: profile High, level 4.1
x264 [info]: frame I:610 Avg QP:20.06 size: 39577
x264 [info]: frame P:26457 Avg QP:21.76 size: 22977
x264 [info]: frame B:72785 Avg QP:22.99 size: 10567
x264 [info]: consecutive B-frames: 3.4% 4.5% 14.0% 38.7% 17.5% 18.7% 2.2% 0.8% 0.1%
x264 [info]: mb I I16..4: 13.8% 63.1% 23.1%
x264 [info]: mb P I16..4: 2.0% 21.8% 5.6% P16..4: 24.7% 27.3% 17.2% 1.2% 0.2% skip: 0.0%
x264 [info]: mb B I16..4: 0.0% 3.8% 0.9% B16..8: 41.3% 18.5% 6.4% direct:17.2% skip:11.9% L0:33.1% L1:30.7% BI:36.3%
x264 [info]: 8x8 transform intra:75.4% inter:54.3%
x264 [info]: direct mvs spatial:95.7% temporal:4.3%
x264 [info]: coded y,uvDC,uvAC intra: 96.5% 85.4% 52.2% inter: 68.2% 47.2% 11.2%
x264 [info]: i16 v,h,dc,p: 2% 2% 50% 47%
x264 [info]: i8 v,h,dc,ddl,ddr,vr,hd,vl,hu: 14% 9% 13% 9% 11% 12% 9% 11% 11%
x264 [info]: i4 v,h,dc,ddl,ddr,vr,hd,vl,hu: 9% 27% 5% 8% 11% 12% 9% 10% 9%
x264 [info]: i8c dc,h,v,p: 35% 27% 21% 16%
x264 [info]: Weighted P-Frames: Y:32.0% UV:14.9%
x264 [info]: ref P L0: 44.1% 17.7% 11.8% 5.9% 4.0% 3.3% 2.6% 1.8% 1.5% 1.4% 1.2% 1.1% 1.0% 1.0% 0.9% 0.7%
x264 [info]: ref B L0: 87.3% 4.8% 1.9% 1.2% 0.9% 0.8% 0.6% 0.5% 0.4% 0.4% 0.3% 0.3% 0.3% 0.2% 0.1%
x264 [info]: ref B L1: 98.9% 1.1%
x264 [info]: kb/s:2806.50
-General
Unique ID : 235236776554282901114968559228780535686 (0xB0F8F487E6F36DCF80725971250BDF86)
Complete name : Ура, у нас каникулы.1972.mkv
Format : Matroska
Format version : Version 2
File size : 1.40 GiB
Duration : 1 h 6 min
Overall bit rate : 3 000 kb/s
Encoded date : UTC 2018-03-09 15:09:28
Writing application : mkvmerge v7.8.0 ('River Man') 32bit built on Mar 27 2015 16:18:02
Writing library : libebml v1.3.1 + libmatroska v1.4.2
Video
ID : 1
Format : AVC
Format/Info : Advanced Video Codec
Format profile : High@L4.1
Format settings, CABAC : Yes
Format settings, ReFrames : 16 frames
Codec ID : V_MPEG4/ISO/AVC
Duration : 1 h 6 min
Bit rate : 2 807 kb/s
Width : 692 pixels
Height : 288 pixels
Display aspect ratio : 2.563
Frame rate mode : Constant
Frame rate : 25.000 FPS
Color space : YUV
Chroma subsampling : 4:2:0
Bit depth : 8 bits
Scan type : Progressive
Bits/(Pixel*Frame) : 0.563
Stream size : 1.28 GiB (92%)
Title : Ура! У нас каникулы! 1972
Writing library : x264 core 152 r2851kMod ba24899
Encoding settings : cabac=1 / ref=16 / deblock=1:-2:-2 / analyse=0x3:0x133 / me=umh / subme=10 / psy=1 / fade_compensate=0.00 / psy_rd=1.00:0.20 / mixed_ref=1 / me_range=24 / chroma_me=1 / trellis=2 / 8x8dct=1 / cqm=0 / deadzone=21,11 / fast_pskip=0 / chroma_qp_offset=-3 / threads=9 / lookahead_threads=1 / sliced_threads=0 / nr=0 / decimate=0 / interlaced=0 / bluray_compat=0 / constrained_intra=0 / bframes=8 / b_pyramid=2 / b_adapt=2 / b_bias=0 / direct=3 / weightb=1 / open_gop=0 / weightp=2 / keyint=250 / keyint_min=25 / scenecut=40 / intra_refresh=0 / rc_lookahead=60 / rc=2pass / mbtree=0 / bitrate=2807 / ratetol=1.0 / qcomp=0.65 / qpmin=0 / qpmax=69 / qpstep=4 / cplxblur=20.0 / qblur=0.5 / vbv_maxrate=62500 / vbv_bufsize=78125 / nal_hrd=none / filler=0 / ip_ratio=1.25 / pb_ratio=1.25 / aq=1:1.00
Language : Russian
Default : Yes
Forced : No
Color range : Limited
Color primaries : BT.601 PAL
Transfer characteristics : BT.470 System B, BT.470 System G
Matrix coefficients : BT.601
Audio
ID : 2
Format : AC-3
Format/Info : Audio Coding 3
Mode extension : CM (complete main)
Format settings, Endianness : Big
Codec ID : A_AC3
Duration : 1 h 6 min
Bit rate mode : Constant
Bit rate : 192 kb/s
Channel(s) : 2 channels
Channel positions : Front: L R
Sampling rate : 48.0 kHz
Frame rate : 31.250 FPS (1536 spf)
Compression mode : Lossy
Stream size : 91.4 MiB (6%)
Title : Оригинал: AC-3; 16 bits 48 Khz; 2.0ch 192 Kbps; CBR
Language : Russian
Default : Yes
Forced : No


[torrentc.info]_t_5531978.torrent
Торрент: Зарегистрирован ·  [ 2018-03-11 01:16 ] ·  f54db9ee2c599fadab225c02bf3c8cb7ecf551c6

14 KB

Статус: проверено
Скачан: 0 раз
Размер: 1.4 GB
Оценка: 
(Голосов: 0)
Сказали спасибо: 0  Спасибо
Похожие темы
[Профиль]    [ЛС]
Показать сообщения:    
Ответить на тему

Текущее время: Сегодня 22:22

Часовой пояс: GMT + 7



Вы не можете начинать темы
Вы не можете отвечать на сообщения
Вы не можете редактировать свои сообщения
Вы не можете удалять свои сообщения
Вы не можете голосовать в опросах
Вы не можете прикреплять файлы к сообщениям
Вы можете скачивать файлы