(Chanson) [CD] Малинин Александр - Любви желанная пора - 1994, FLAC (image+.cue), lossless

Ответить на тему
Статистика раздачи [Обновить пиров]
Размер:  304 MB   |    Зарегистрирован:  6 месяцев 8 дней   |    Скачан:  0 раз

Полного источника не было: Никогда

 
   
 
 
 
Автор Сообщение

torrentc.info

Создавать темы 10-Мар-2018 19:57

[Цитировать]

Малинин Александр / Любви желанная пора
Жанр: Chanson
Носитель: CD
Страна-производитель диска (релиза): Россия
Год издания: 1994
Издатель (лейбл): Zeko Records
Номер по каталогу: ЗД-048
Страна исполнителя (группы): Россия
Аудиокодек: FLAC (*.flac)
Тип рипа: image+.cue
Битрейт аудио: lossless
Продолжительность: 00:54:20
Источник (релизер): mart64val
Наличие сканов в содержимом раздачи: да
Треклист:
01. Пугачев [04:30]
02. Ты не любишь меня, милый голубь [03:29]
03. Любви желанная пора [05:05]
04. В лунном саду [04:36]
05. Девонька [03:43]
06. Незнакомка [04:10]
07. В полуденном саду [04:53]
08. Ночь [04:36]
09. Глаза твои [06:11]
10. Нищая [05:12]
11. Гори, гори, моя звезда [04:06]
12. Переведи меня через майдан [03:43]

Лог создания рипа

Exact Audio Copy V1.0 beta 3 from 29. August 2011
Отчёт EAC об извлечении, выполненном 24. февраля 2018, 8:15
Малинин Александр / Любви желанная пора
Дисковод: Optiarc DVD RW AD-7280S Adapter: 1 ID: 0
Режим чтения : ДостоверностьИспользование точного потока : ДаОтключение кэша аудио : ДаИспользование указателей C2 : Нет
Коррекция смещения при чтении : 48Способность читать области Lead-in и Lead-out : НетЗаполнение пропущенных сэмплов тишиной : ДаУдаление блоков с тишиной в начале и конце : НетПри вычислениях CRC использовались нулевые сэмплы : ДаИнтерфейс : Встроенный Win32-интерфейс для Win NT/2000
Выходной формат : Пользовательский кодировщикВыбранный битрейт : 768 kBit/sКачество : ВысокийДобавление ID3-тега : НетУтилита сжатия : C:\Program Files (x86)\Exact Audio Copy\FLAC\FLAC.EXEДополнительные параметры : -8 -V -T "ARTIST=%artist%" -T "TITLE=%title%" -T "ALBUM=%albumtitle%" -T "DATE=%year%" -T "TRACKNUMBER=%tracknr%" -T "GENRE=%genre%" -T "COMMENT=%comment%" -T "BAND=%albuminterpret%" -T "ALBUMARTIST=%albuminterpret%" -T "COMPOSER=%composer%" %haslyrics%--tag-from-file=LYRICS="%lyricsfile%"%haslyrics% -T "DISCNUMBER=%cdnumber%" -T "TOTALDISCS=%totalcds%" -T "TOTALTRACKS=%numtracks%" %hascover%--picture="%coverfile%"%hascover% %source% -o %dest%
TOC извлечённого CD
Трек | Старт | Длительность | Начальный сектор | Конечный сектор --------------------------------------------------------------------- 1 | 0:00.25 | 4:30.57 | 25 | 20331 2 | 4:31.07 | 3:29.10 | 20332 | 36016 3 | 8:00.17 | 5:05.60 | 36017 | 58951 4 | 13:06.02 | 4:36.63 | 58952 | 79714 5 | 17:42.65 | 3:43.15 | 79715 | 96454 6 | 21:26.05 | 4:10.10 | 96455 | 115214 7 | 25:36.15 | 4:53.10 | 115215 | 137199 8 | 30:29.25 | 4:36.67 | 137200 | 157966 9 | 35:06.17 | 6:11.73 | 157967 | 185864 10 | 41:18.15 | 5:12.25 | 185865 | 209289 11 | 46:30.40 | 4:06.15 | 209290 | 227754 12 | 50:36.55 | 3:43.22 | 227755 | 244501
Характеристики диапазона извлечения и сообщения об ошибках
Выбранный диапазон
Имя файла D:\РАЗДАЧИ\Малинин Александр-Любви желанная пора (1994)\Малинин Александр - Любви желанная пора.wav
Пиковый уровень 99.9 % Скорость извлечения 2.9 X Качество диапазона 100.0 % CRC теста CA898750 CRC копии CA898750 Копирование... OK
Ошибок не произошло
AccurateRip: сводка
Трек 1 : извлечено точно (доверие 1) [D666A55C] (AR v1)Трек 2 : извлечено точно (доверие 1) [F6EA3154] (AR v1)Трек 3 : извлечено точно (доверие 1) [C784E557] (AR v1)Трек 4 : извлечено точно (доверие 1) [9EE6E46A] (AR v1)Трек 5 : извлечено точно (доверие 1) [3EB1A469] (AR v1)Трек 6 : извлечено точно (доверие 1) [8CCFBAB5] (AR v1)Трек 7 : извлечено точно (доверие 1) [C5255CF7] (AR v1)Трек 8 : извлечено точно (доверие 1) [D3963125] (AR v1)Трек 9 : извлечено точно (доверие 1) [DDDB30DD] (AR v1)Трек 10 : извлечено точно (доверие 1) [3ECFE790] (AR v1)Трек 11 : извлечено точно (доверие 1) [E252BEAD] (AR v1)Трек 12 : извлечено точно (доверие 1) [FA5FAF33] (AR v1)
Все треки извлечены точно
Конец отчёта
==== Контрольная сумма отчёта E0EB6E4DFCB31DC06CB79950DCA1923C1F1943D0534D1212797DF35C732EB97C ====


[torrentc.info]_t_5525383.torrent
Торрент: Зарегистрирован ·  [ 2018-03-10 19:56 ] ·  0463044c274e6322da315a99a233c461a41cb92a

13 KB

Статус: проверено
Скачан: 0 раз
Размер: 304 MB
Оценка: 
(Голосов: 0)
Сказали спасибо: 0  Спасибо
Похожие темы
[Профиль]    [ЛС]
Показать сообщения:    
Ответить на тему

Текущее время: Сегодня 02:59

Часовой пояс: GMT + 7



Вы не можете начинать темы
Вы не можете отвечать на сообщения
Вы не можете редактировать свои сообщения
Вы не можете удалять свои сообщения
Вы не можете голосовать в опросах
Вы не можете прикреплять файлы к сообщениям
Вы можете скачивать файлы